Menu

Download

Dziś nas odwiedzili:
Archiwum:
Grudzień 2016 (225)
Listopad 2016 (2437)
Październik 2016 (1966)
Wrzesień 2016 (1859)
Sierpień 2016 (2523)
Lipiec 2016 (2609)


Pokaż wszystkie tagi:
Wejścia na Vorek.pl z:
{referer}



NABÓR NA STANOWISKO


MODERATOR        UPLOADER



Zapowiedź / Knowing (2009) [720p BRRiP XviD] [PL - Lektor]

Zapowiedź / Knowing (2009) [720p BRRiP XviD] [PL - Lektor]

reżyseria: Alex Proyas
scenariusz: Ryne Douglas Pearson, Juliet Snowden
premiera: 27 marca 2009 (Polska) 9 marca 2009 (Świat)
produkcja: Australia, USA, Wielka Brytania
gatunek: Dramat, Thriller, Sci-Fi

Nicolas Cage - John Koestler
Chandler Canterbury - Caleb Koestler
Rose Byrne - Diana Wayland
Lara Robinson - Lucinda Embry / Abby Wayland
Nadia Townsend - Grace Koestler
Alan Hopgood - Wielebny Koestler
Adrienne Pickering - Allison
Danielle Carter - Miss Taylor (1959)
Alethea McGrath - Miss Taylor (2009)
D.G. Maloney - Nieznajomy

Film reżysera kinowego hitu "Ja, robot" (w roli głównej Will Smith). Film, na którym widz paradoksalnie najbardziej będzie się bał wiedzy o tym co się wydarzy. Czy nieświadomość jest rzeczywiście błogosławieństwem czy może przekleństwem? Co ty byś zrobił, gdybyś znał najczarniejszą przyszłość? W 1958 roku w pewnej szkole zakopano kapsułę z rysunkami dzieci. Została ona odkopana 50 lat później, jednak okazało się, że jeden z tych rysunków to coś więcej niż tylko dziecięca fantazja. John Koestler (Nicolas Cage) wkrótce przekona się, że umieszczone na kartce papieru przypadkowe cyfry w rzeczywistości wyznaczają daty najstraszniejszych katastrof ostatniego pół wieku. Nie wszystkie proroctwa już się jednak wypełniły zostały jeszcze trzy daty.


Knowing 2009 720p PL BRRip XviD-NN

Format                           : AVI
File size                        : 2.50 GiB
Duration                         : 1h 56mn
Overall bit rate                 : 3 067 Kbps

Video
Codec ID                         : XVID
Bit rate                         : 2 608 Kbps
Width                            : 1 280 pixels
Height                           : 544 pixels
Frame rate                       : 25.000 fps
Original frame rate              : 23.976 fps
Stream size                      : 2.12 GiB (85%)

Audio                            : Polish Lector
Format                           : AC-3
Bit rate                         : 448 Kbps
Channel(s)                       : 6 channels
Sampling rate                    : 48.0 KHz
Bit depth                        : 16 bits
Stream size                      : 373 MiB (15%)

FilmWEB..............: 6.7/4387
IMDb.................: 6.4/61.429


Waga: 2.50GB

Paczki po 400MB, można pobierać na przemian:

Aby zobaczyć ukryty tekst musisz być zalogowany, jeżeli nie masz konta zarejestruj się!

lub

Aby zobaczyć ukryty tekst musisz być zalogowany, jeżeli nie masz konta zarejestruj się!

lub

Aby zobaczyć ukryty tekst musisz być zalogowany, jeżeli nie masz konta zarejestruj się!

lub

Aby zobaczyć ukryty tekst musisz być zalogowany, jeżeli nie masz konta zarejestruj się!


Paczki po 1GB, można pobierać na przemian:

Aby zobaczyć ukryty tekst musisz być zalogowany, jeżeli nie masz konta zarejestruj się!

lub

Aby zobaczyć ukryty tekst musisz być zalogowany, jeżeli nie masz konta zarejestruj się!

lub

Aby zobaczyć ukryty tekst musisz być zalogowany, jeżeli nie masz konta zarejestruj się!



Podziel się !

Delicious'da Share  Share on Facebook  Friendfeed Share  Google Shared  StubmleUpon'da Share  Digg'de Share  Netvibes'de Share  Reddit'de Share RSS Feeds Subscribe!

Powrót
Przeglądasz witrynę jako gość.
Dlatego zachęcamy do rejestracji lub do zalogowania się.

Informacja
Użytkownicy z rangą Gość nie mogą dodawać komentarzy.