Menu

Download

Dziś nas odwiedzili:
Archiwum:
Grudzień 2016 (258)
Listopad 2016 (2437)
Październik 2016 (1966)
Wrzesień 2016 (1859)
Sierpień 2016 (2523)
Lipiec 2016 (2609)


Pokaż wszystkie tagi:
Wejścia na Vorek.pl z:
{referer}



NABÓR NA STANOWISKO


MODERATOR        UPLOADER



G.I. Joe: Czas Kobry / G.I. Joe: The Rise of Cobra (2009) [BRRiP XviD] [PL - Lektor]

G.I. Joe: Czas Kobry / G.I. Joe: The Rise of Cobra (2009) [BRRiP XviD] [PL - Lektor]

reżyseria: Stephen Sommers
scenariusz: Stuart Beattie, Paul Lovett
premiera: 7 sierpnia 2009 (Polska) 5 sierpnia 2009 (Świat)
produkcja: Czechy, USA
gatunek: Akcja

Channing Tatum - Duke Hausser
Sienna Miller - Ana DeCobray / Baronowa
Marlon Wayans - Ripcord
Rachel Nichols - Shana 'Scarlett' O'Hara
Ray Park - Snake Eyes
Dennis Quaid - Generał Hawk
Sad Taghmaoui - Breaker
Adewale Akinnuoye-Agbaje - Heavy Duty
Byung-hun Lee - Storm Shadow
Christopher Eccleston - James McCullen / Destro

Elitarna jednostka wojskowa znana jako G.I. JOE przemierza góry Azji Środkowej, pustynie Egiptu, zatłoczone ulice Paryża, a nawet lodową pokrywę Bieguna Północnego, aby unieszkodliwić podstępnego handlarza bronią DESTRO, stawić czoła rosnącemu zagrożeniu ze strony tajemniczej organizacji KOBRA i powstrzymać ją od pogrążenia świata w chaosie. Wykonując swoje zadanie, G.I. JOE posługują się technologiami szpiegowskimi i sprzętem wojskowym najnowszej generacji.


G I Joe The Rise Of Cobra 2009 PL BRRip XviD-NN

Format                           : AVI
File size                        : 2.52 GiB
Duration                         : 1h 53mn
Overall bit rate                 : 3 192 Kbps

Video
Codec ID                         : XVID
Bit rate                         : 2 732 Kbps
Width                            : 720 pixels
Height                           : 304 pixels
Frame rate                       : 25.000 fps
Original frame rate              : 23.976 fps
Chroma subsampling               : 4:2:0
Scan type                        : Progressive
Stream size                      : 2.16 GiB (86%)

Audio                            : Polish Lector
Format                           : AC-3
Bit rate mode                    : Constant
Bit rate                         : 448 Kbps
Channel(s)                       : 6 channels
Channel positions                : Front: L C R, Side: L R, LFE
Sampling rate                    : 48.0 KHz
Bit depth                        : 16 bits
Stream size                      : 363 MiB (14%)


Waga: 2.53GB

Paczki po 400MB, można pobierać na przemian:

Aby zobaczyć ukryty tekst musisz być zalogowany, jeżeli nie masz konta zarejestruj się!

lub

Aby zobaczyć ukryty tekst musisz być zalogowany, jeżeli nie masz konta zarejestruj się!

lub

Aby zobaczyć ukryty tekst musisz być zalogowany, jeżeli nie masz konta zarejestruj się!

lub

Aby zobaczyć ukryty tekst musisz być zalogowany, jeżeli nie masz konta zarejestruj się!


Paczki po 1GB, można pobierać na przemian:

Aby zobaczyć ukryty tekst musisz być zalogowany, jeżeli nie masz konta zarejestruj się!

lub

Aby zobaczyć ukryty tekst musisz być zalogowany, jeżeli nie masz konta zarejestruj się!

lub

Aby zobaczyć ukryty tekst musisz być zalogowany, jeżeli nie masz konta zarejestruj się!



Podziel się !

Delicious'da Share  Share on Facebook  Friendfeed Share  Google Shared  StubmleUpon'da Share  Digg'de Share  Netvibes'de Share  Reddit'de Share RSS Feeds Subscribe!

Powrót
Przeglądasz witrynę jako gość.
Dlatego zachęcamy do rejestracji lub do zalogowania się.

Informacja
Użytkownicy z rangą Gość nie mogą dodawać komentarzy.