Menu

Download

Dziś nas odwiedzili:
Archiwum:
Grudzień 2016 (881)
Listopad 2016 (2433)
Październik 2016 (1961)
Wrzesień 2016 (1857)
Sierpień 2016 (2521)
Lipiec 2016 (2605)


Pokaż wszystkie tagi:
Wejścia na Vorek.pl z:
{referer}



NABÓR NA STANOWISKO


MODERATOR        UPLOADER



Więzień nienawiści / American History X (1998) [720p XviD] [PL - Lektor]

Więzień nienawiści / American History X (1998) [720p XviD] [PL - Lektor]

reżyseria: Tony Kaye
scenariusz: David McKenna
premiera: 30 października 1998 (Świat)
produkcja: USA
gatunek: Dramat

Edward Norton - Derek Vinyard
Edward Furlong - Daniel Vinyard
Beverly D'Angelo - Doris Vinyard
Jennifer Lien - Davina Vinyard
Ethan Suplee - Seth
Fairuza Balk - Stacey
Avery Brooks - Bob Sweeney
Elliott Gould - Murray
Stacy Keach - Cameron Alexander
William Russ - Dennis Vinyard

Derek Vinyard jest amerykańskim neonazistą. Swoją sympatię do rasizmu okazuje całym sobą, a przede wszystkim wytatuowana swastyką na piersi. Pewnej nocy w przypływie złości po domowej kłótni jak sie później dowiadujemy, zabija w brutalny sposób dwóch czarnoskórych młodych mężczyzn. Za rzekomo nieumyslne spowodowanie śmierci trafia na 3 lata do więzienia. Trafia do bloku dla czarnoskórych i pracuje przy sortowaniu bielizny z czarnym facetem. Obserwuje również swych białych braci, również neonazistów robiących więzienne interesy z meksykanami. Po demonstarcji swojego oburzenia i niechęci zostaje brutalnie zgwałcony przez białych nazistów. W więziennym szpitalu odwiedza go czarnoskóry dr historii, były nauczyciel Dereka i obecny jego brata Daniela. Od tej pory Derek zmienia się nie do poznania, a po wyjściu z więzienia postanawia pomóc bratu, który tak jak on zostaje czynnym neonazistą. Nie jest jednak w stanie przewidzieć wszystkiego...


American History X 1998 PL 720p BDRip XviD-NN

Format                           : AVI
File size                        : 2.57 GiB
Duration                         : 1h 54mn
Overall bit rate                 : 3 226 Kbps

Video
Codec ID                         : XVID
Bit rate                         : 2 767 Kbps
Width                            : 1 280 pixels
Height                           : 720 pixels
Display aspect ratio             : 16:9
Frame rate                       : 25.000 fps
Original frame rate              : 23.976 fps
Chroma subsampling               : 4:2:0
Scan type                        : Progressive
Stream size                      : 2.20 GiB (86%)

Audio                            : Polish Lector
Format                           : AC-3
Bit rate mode                    : Constant
Bit rate                         : 448 Kbps
Channel(s)                       : 6 channels
Channel positions                : Front: L C R, Side: L R, LFE
Sampling rate                    : 48.0 KHz
Video delay                      : 2s 600ms
Stream size                      : 365 MiB (14%


Waga: 2.60GB

Paczki po 400MB, można pobierać na przemian:

Aby zobaczyć ukryty tekst musisz być zalogowany, jeżeli nie masz konta zarejestruj się!

lub

Aby zobaczyć ukryty tekst musisz być zalogowany, jeżeli nie masz konta zarejestruj się!

lub

Aby zobaczyć ukryty tekst musisz być zalogowany, jeżeli nie masz konta zarejestruj się!

lub

Aby zobaczyć ukryty tekst musisz być zalogowany, jeżeli nie masz konta zarejestruj się!


Paczki po 1GB, można pobierać na przemian:

Aby zobaczyć ukryty tekst musisz być zalogowany, jeżeli nie masz konta zarejestruj się!

lub

Aby zobaczyć ukryty tekst musisz być zalogowany, jeżeli nie masz konta zarejestruj się!

lub

Aby zobaczyć ukryty tekst musisz być zalogowany, jeżeli nie masz konta zarejestruj się!



Podziel się !

Delicious'da Share  Share on Facebook  Friendfeed Share  Google Shared  StubmleUpon'da Share  Digg'de Share  Netvibes'de Share  Reddit'de Share RSS Feeds Subscribe!

Powrót
Przeglądasz witrynę jako gość.
Dlatego zachęcamy do rejestracji lub do zalogowania się.

Informacja
Użytkownicy z rangą Gość nie mogą dodawać komentarzy.