Menu

Download

Dziś nas odwiedzili:
mirunia22, pupil666, puedros57, mondia, CCC59KXJ, Donaj, nowmarek, mardra1, janek12, gargamel_50, malczyce, jojogurt, karton1, smoksmok31, fox57, robek4, brovarek123, artfrst, danix20, alrakis, skyluk, kalwap3, mart1nof, piterd14, jusia266, schmeichel27, marcindziki1, sloniuu28, jacaalvaro, pit.7777, bulkotnik, figo73, Max Killer, romanirena, draco, djclubs, biznesmen66, pika01, bardini, Majki, MISIU11, topolski, seba512, jinks13, pluton777777, jarek861029, Ireland29, priv, masterp, pawel19677m, mahone78, miesniak, EdiMar, miodowe, marian1999, Tadex2014, renka, tomquz, nonez, miszka1005, zpcytadela, secundus, lipenjusz, wasyl75, DeejayMalec, cwiras22, martin7011, 4lolek4, pitereku, JoXs, agary35, robanek01, narkusdwa, bronek65, adamusasior122, bastion4, rufinone, sir daro 24, mogo76, swen7, rodzynek1983, laewa, joanna72, yasiorek, MarczelM, levy52, igi2, MIREK11111, vampire69, wiesiek1970, lepper, eree, mwita3, trigall, pysiu_m, radek1980, kudek01, bowe1969, Krakus51, wytaczarz44, yonk, dumdum23, rumak83, mara46, maniek2203, lonej1, worlok11, amfa07, weglownia, jano666, Painkiller212, Marmur, pirek, adam1neo, Liar, kamyk70, tobi180, ralf1976, lukaszek17, Optimus22, bunio238, jedyna123, janusz26, Ebola Here, and20, weronis, MARIULA500, dejw, waclaw, golden2, koczkodan, kuras, sznurowski, tomek i ania, lorak56, szefiii, terry258, cycek77, akak1, Uszka2001, pawmot, Taktyk91, janek1888, dulo123, darekgl1968, foch5r, areczek971, papay100, pychu007, zynio, BoloLVII, Krzysztof1973, jasiufasola, czesie_k, lauratcv, tadeuszo7, djlemur, pentor, ciołek12, krzysiek850307, matey777, tomaszo1948, GunHead, skarabeusz, sandacz53, kajtek42, piła, tomek7221, anita13, andy08, victory04, benq77, buruburu, iwonaro, robaczio9, coruble, buba48, keram, baraxx, Creative, shemi, lukasz10051, cze, szukisek, virginiaa, margaretka62, tat4, monsun65, lordsiur, kubus009, jacolcom, mlody2205, seat1234, moje401, ARTUROSE, kaczy24, Ambasadoor70, Andi-diesel, lopez76, zakopne, adox80, huarez44, jerry1013, mp3de, Manias01, lucky170, siwy710, mach12, stanley_pl, krywan, ASTERGO, mariant, mpawel71, LeoMarkus, Zelwik, FALKON69, aspekt2004, prularis, toczev, weenzer, podol76, Prospector00, Auto-Lux, marek6408, Bodzio57, lauenburg, Sdrov, spoli, Trytonik, czesiek1964, qczi, grygol2, wotar, slay25, kkk244240, maciej1900, jeak, arkadiusz271, RUFO, mirek4321, bolo335, symoni2008, DARO67, glut1510, wojtasg, solgerx, Sypi, pepik11, Lukas8, jszlom, luka121212, piotrek38, ryszardos69, sayo300, sita1204, zibim, trybsiu, angelo1969, crownart, Feniks101, celin, polska00, gawron.1983, splittt, jedrek00711, pipipiotr, mariusz242, Rogall, alex, andjey, Cirrus, kasi, Bartekn90, saper7206, drenn1, xard2906, Ashigari, aj 1971, andrzejdkl2, buku54, jarecki500, tedxvs, mani4444, ramon, singielka30, sproket1, Vanisz, Kamirllo105, gento, tristan_mk, skajla, Abdul_wisimulacha, biggreg, bialy219, bil, pbpbpbpbpb, EFBOT, Svilesis

Archiwum:
Grudzień 2016 (451)
Listopad 2016 (2437)
Październik 2016 (1965)
Wrzesień 2016 (1859)
Sierpień 2016 (2523)
Lipiec 2016 (2609)


Pokaż wszystkie tagi:
Wejścia na Vorek.pl z:
{referer}



NABÓR NA STANOWISKO


MODERATOR        UPLOADER



Uwiedziony / Deception (2008) [BDRiP XviD] [PL - Lektor]

Uwiedziony / Deception (2008) [BDRiP XviD] [PL - Lektor]

reżyseria: Marcel Langenegger
scenariusz: Mark Bomback
premiera: 24 kwietnia 2008 (Świat)
produkcja: USA
gatunek: Dramat, Thriller

Ewan McGregor - Jonathan
Hugh Jackman - Wyatt Bose / Jamie Getz
Michelle Williams - S
Bruce Altman - Prawnik #1
Andrew Ginsburg - Prawnik #2
Stephanie Roth Haberle - Asystentka dyrektora
Christine Kan - Tenisistka #1
Dante Spinotti - Herr Kleiner / Pan Moretti
Karolina Muller - Kelnerka
Agnete Oernsholt - Kobieta w Waldorf Astoria

Film opowiada historię doradcy finansowego Jonathana (McGregor), który na swojej drodze spotyka charyzmatycznego prawnika (Jackman). Dzięki nowemu przyjacielowi bohater trafia do seks klubu oferującego możliwość realizacji najbardziej wyrafinowanych zachcianek i pragnień. Tam Jonathan poznaje kobietę ze swoich snów. Niedługo potem zostaje głównym podejrzanym nie tylko w sprawie zaginięcia kobiety, ale także kradzieży 20 milionów dolarów.


Deception 2008 PL BDRip XviD-NN

Format                           : AVI
File size                        : 2.19 GiB
Duration                         : 1h 43mn
Overall bit rate                 : 3 030 Kbps

Video
Codec ID                         : XVID
Bit rate                         : 2 570 Kbps
Width                            : 720 pixels
Height                           : 300 pixels
Display aspect ratio             : 2.40:1
Frame rate                       : 25.000 fps
Color space                      : YUV
Chroma subsampling               : 4:2:0
Bit depth                        : 8 bits
Scan type                        : Progressive
Bits/(Pixel*Frame)               : 0.476
Stream size                      : 1.86 GiB (85%)

Audio                            : Polish Lector
Format                           : AC-3
Codec ID                         : 2000
Bit rate mode                    : Constant
Bit rate                         : 448 Kbps
Channel(s)                       : 6 channels
Sampling rate                    : 48.0 KHz
Stream size                      : 331 MiB (15%)
Interleave, duration             : 40 ms (1.00 video frame)
Interleave, preload duration     : 500 ms


Waga: 2.20GB

Paczki po 400MB, można pobierać na przemian:

Aby zobaczyć ukryty tekst musisz być zalogowany, jeżeli nie masz konta zarejestruj się!

lub

Aby zobaczyć ukryty tekst musisz być zalogowany, jeżeli nie masz konta zarejestruj się!

lub

Aby zobaczyć ukryty tekst musisz być zalogowany, jeżeli nie masz konta zarejestruj się!

lub

Aby zobaczyć ukryty tekst musisz być zalogowany, jeżeli nie masz konta zarejestruj się!


Paczki po 1GB, można pobierać na przemian:

Aby zobaczyć ukryty tekst musisz być zalogowany, jeżeli nie masz konta zarejestruj się!

lub

Aby zobaczyć ukryty tekst musisz być zalogowany, jeżeli nie masz konta zarejestruj się!

lub

Aby zobaczyć ukryty tekst musisz być zalogowany, jeżeli nie masz konta zarejestruj się!



Podziel się !

Delicious'da Share  Share on Facebook  Friendfeed Share  Google Shared  StubmleUpon'da Share  Digg'de Share  Netvibes'de Share  Reddit'de Share RSS Feeds Subscribe!

Powrót
Przeglądasz witrynę jako gość.
Dlatego zachęcamy do rejestracji lub do zalogowania się.

Informacja
Użytkownicy z rangą Gość nie mogą dodawać komentarzy.