Menu

Download

Dziś nas odwiedzili:
Archiwum:
Grudzień 2016 (225)
Listopad 2016 (2437)
Październik 2016 (1966)
Wrzesień 2016 (1859)
Sierpień 2016 (2523)
Lipiec 2016 (2609)


Pokaż wszystkie tagi:
Wejścia na Vorek.pl z:
{referer}



NABÓR NA STANOWISKO


MODERATOR        UPLOADER



Laboratorium Dextera / Dexter's Laboratory (1996) PL.TVRip.XviD [Komplet]



DUBBING PL

UPLOAD NA 2 SERWERY

5 % DANYCH NAPRAWCZYCH



Dexter to mały geniusz, który w swoim domu ma ukryte sekretne laboratorium, gdzie tworzy różne wynalazki. Jego wrogiem jest jego nachalna siostra DeeDee, która często przeszkadza Dexterowi w prowadzeniu eksperymentów, niszcząc jego sprzęt...






Dane techniczne:

Format : AVI
Format/Info : Audio Video Interleave
Overall bit rate : 898 Kbps

Video
ID : 0
Format : MPEG-4 Visual
Format profile : [email protected]
Format settings, BVOP : No
Format settings, QPel : No
Format settings, GMC : No warppoints
Format settings, Matrix : Default (H.263)
Codec ID : XVID
Codec ID/Hint : XviD
Duration : 6mn 32s
Bit rate : 767 Kbps
Width : 720 pixels
Height : 576 pixels
Display aspect ratio : 5:4
Frame rate : 25.000 fps
Standard : PAL
Color space : YUV
Chroma subsampling : 4:2:0
Bit depth : 8 bits
Scan type : Progressive
Bits/(Pixel*Frame) : 0.074
Stream size : 35.9 MiB (85%)
Writing library : XviD 1.2.1 (UTC 2008-12-04)

Audio
ID : 1
Format : MPEG Audio
Format version : Version 1
Format profile : Layer 3
Mode : Joint stereo
Mode extension : MS Stereo
Codec ID : 55
Codec ID/Hint : MP3
Duration : 6mn 33s
Bit rate mode : Variable
Bit rate : 119 Kbps
Channel(s) : 2 channels
Sampling rate : 44.1 KHz
Stream size : 5.59 MiB (13%)
Alignment : Aligned on interleaves
Interleave, duration : 26 ms (0.65 video frame)
Interleave, preload duration : 507 ms








DOWNLOAD
Upload na 2 serwery, można pobierać naprzemiennie. Party po 500 mb.


Mirror 1:

Aby zobaczyć ukryty tekst musisz być zalogowany, jeżeli nie masz konta zarejestruj się!


lub

Mirror 2:

Aby zobaczyć ukryty tekst musisz być zalogowany, jeżeli nie masz konta zarejestruj się!



Podziel się !

Delicious'da Share  Share on Facebook  Friendfeed Share  Google Shared  StubmleUpon'da Share  Digg'de Share  Netvibes'de Share  Reddit'de Share RSS Feeds Subscribe!

Powrót
Przeglądasz witrynę jako gość.
Dlatego zachęcamy do rejestracji lub do zalogowania się.

Informacja
Użytkownicy z rangą Gość nie mogą dodawać komentarzy.