Menu

Download

Dziś nas odwiedzili:
Archiwum:
Grudzień 2016 (345)
Listopad 2016 (2437)
Październik 2016 (1966)
Wrzesień 2016 (1859)
Sierpień 2016 (2523)
Lipiec 2016 (2609)


Pokaż wszystkie tagi:
Wejścia na Vorek.pl z:
{referer}



NABÓR NA STANOWISKO


MODERATOR        UPLOADER



Zakochany wilczek / Alpha And Omega 2010.R5.XViD-LKRG


Co sprawia że podróż wydaje się niesamowita? Autostop i zatrzymane samochody, złe niedźwiedzie, kłujące jeżozwierze i grające w golfa gęsi oraz kaczki. Wystarczy zapytać Kate i Humphrey, dwa wilki, które próbują dostać się do domu, po złapaniu przez strażników leśnych i wywiezieniu na drugi koniec kraju. Humphrey jest wilkiem Omega, którego dni są szybkie i dowcip zgryźliwy, pochodzi on z kochającej rodziny wilków bawiących się z wiewiórkami. Kate jest wilkiem Alpha: lubi dyscyplinę i ma gładkie oko Lary Croft – ognia dodają jej bardzo zwinne ruchy. Te dwie zupełnie inne osobowości połączy wspólny cel, czyli powrót do domu.

Zakochany wilczek / Alpha And Omega 2010.R5.XViD-LKRG Zakochany wilczek / Alpha And Omega 2010.R5.XViD-LKRG
Zakochany wilczek / Alpha And Omega 2010.R5.XViD-LKRG Zakochany wilczek / Alpha And Omega 2010.R5.XViD-LKRG

Dla posiadaczy kont premium.
Aby zobaczyć ukryty tekst musisz być zalogowany, jeżeli nie masz konta zarejestruj się!

Archiwum.
Aby zobaczyć ukryty tekst musisz być zalogowany, jeżeli nie masz konta zarejestruj się!


Video
ID : 0
Format : MPEG-4 Visual
Format profile : [email protected]
Format settings, BVOP : No
Format settings, QPel : No
Format settings, GMC : No warppoints
Format settings, Matrix : Default (H.263)
Codec ID : XVID
Codec ID/Hint : XviD
Duration : 1h 15mn
Bit rate : 1 071 Kbps
Width : 700 pixels
Height : 392 pixels
Display aspect ratio : 16:9
Frame rate : 25.000 fps
Color space : YUV
Chroma subsampling : 4:2:0
Bit depth : 8 bits
Scan type : Progressive
Bits/(Pixel*Frame) : 0.156
Stream size : 577 MiB (80%)
Writing library : XviD 1.2.1 (UTC 2008-12-04)

Audio
ID : 1
Format : AC-3
Format/Info : Audio Coding 3
Mode extension : CM (complete main)
Codec ID : 2000
Duration : 1h 15mn
Bit rate mode : Constant
Bit rate : 256 Kbps
Channel(s) : 2 channels
Channel positions : Front: L R
Sampling rate : 48.0 KHz
Bit depth : 16 bits
Stream size : 138 MiB (19%)
Alignment : Aligned on interleaves
Interleave, duration : 477 ms (11.92 video frames)
Interleave, preload duration : 960 ms



Podziel się !

Delicious'da Share  Share on Facebook  Friendfeed Share  Google Shared  StubmleUpon'da Share  Digg'de Share  Netvibes'de Share  Reddit'de Share RSS Feeds Subscribe!

Powrót
Przeglądasz witrynę jako gość.
Dlatego zachęcamy do rejestracji lub do zalogowania się.

Informacja
Użytkownicy z rangą Gość nie mogą dodawać komentarzy.