Menu

Download

Dziś nas odwiedzili:
Mlody12478, CCC59KXJ, adamusasior122, tomaszek24, bialekfotografia, scorpions793, smoksmok31, bardini, traco, artfrst, levy52, panradzio, majag88, kacper2008, tomex2u, lopez76, marcin_marcin, gasior932, Krzysztof1973, sita1204, waawr, pika01, skyluk, kanapkatorpedo, darekgl1968, MechoTV, Max Killer, solgerx, stanisław, jarek861029, siwy710, tomzam, and20, saper7206, GunHead, hardcore3791, zenszol, bastion4, fazzy99, slay25, geniu7, gwidon1981, kendzior94, harisa95, duninek16, Raf.36, inesimariusz, DeejayMalec, terry258, Auto-Lux, yonk, jacekgmk, johnyb70, JoXs, KECAJ_18, topolski, ulaghost, Ashigari, pbpbpbpbpb, lonej1, snikers77, renka, eree, Proton_1x, xxvxx5, MarczelM, pitereku, ciawek, Liar, igi2, chemik638, bowe1969, amfetaminka, jedrek00711, mogo76, edmund54, elasuc, Fedor11, pysiu_m, Grzegorz72, sproket1, klymvm, Andi-diesel, kodotorrva, JurekO, bulkotnik, cybulx, priv, mahone78, niasiaguntos, tomek i ania, lukaszek17, -julius-, sandacz53, szukisek, marcindziki1, mwita3, rumak83, eneasz, zbeer, bokser123, slabin, buku54, ravler89, zachod25, nowmarek, trigall, ango, mach12, cze, Mario090673, wloodo, aka93, demon190219, misek1, miecio28, ralf1976, jacolcom, pentor, gbur17, jurek50, tomaszo1948, pawel97, szturmen, narkusdwa, malczyce, piterd14, szakal, dulo123, mks, jupkeennss, rutkowski20, waldek77, gerard, qczi, adikos34, topikos, Feniks101, enigma1952, adam101102, bokkosa, supperbin, lukasz10051, Matthew67, osa31, sowiczi, zakopne, weenzer, pucini, papay100, darekbus, jpwko, buba48, pixel1194, mrozek8, mamata, keram, virginiaa, matey777, baraxx, danix20, wfman, drls1989, Krakus51, adox80, trez, lauratcv, Sarima, marian1999, aspekt2004, mobil199, kajtek42, lyser, mariant, LeoMarkus, jinks13, posejdon, Sdrov, wojtasg, ASTERGO, wotar, lordsiur, lepper, Painkiller212, rencista39, arkadiusz271, crownart, sayo300, krepel, andy08, monisia5, spoli, miodowe, mondia, Sypi, jeak, krys49, grygol2, misiu1185, symoni2008, Manias01, Lukas8, kamelot2012, Uszka2001, RUFO, maciej1900, fox57, kudek01, jerry1013, tedxvs, pipipiotr, konradko77, margaretka62, elwro, zibim, splittt, ryszardos69, tobi180, jano666, jusia266, pepik11, kat666, krewetka105, biggreg, Cirrus, xard2906, piotrek38, Beno182210, Kwiatek2009, alex, skarabeusz, Bartekn90, andjey, Vanisz, angelo1969, celin, mp3de, Zelwik, brovarek123, P.P.P., jarecki500, maruda3773, bazumi20, EdiMar, joanna72, aj 1971, ewa1971, Erik, Kamirllo105, mariusz242, skajla, Mussstaaang, ggtomy, secundus, Seba1984r, EFBOT, cris2111, Johanson325, Anastazja001, Svilesis, jurczyna, Trytonik, karbor83, momo1410, akak1, vasiwasyl

Archiwum:
Grudzień 2016 (763)
Listopad 2016 (2434)
Październik 2016 (1961)
Wrzesień 2016 (1857)
Sierpień 2016 (2521)
Lipiec 2016 (2605)


Pokaż wszystkie tagi:
Wejścia na Vorek.pl z:
{referer}



NABÓR NA STANOWISKO


MODERATOR        UPLOADER



Shrek Forever After (2010) TS.XViD-IMAGiNE
Cały film w jednym linku


Shrek Forever After (2010) TS.XViD-IMAGiNE



### INFO ###


Video Codec.......:XVID                                     Release Date......:24/05/10
Audio Codec.......:MP3                                      Theatre Date......:21/05/10
Audio Bitrate.....:128                                      Runtime...........:1h 18mn
Subtitles.........:NIL                                      Language..........:ENGLISH
Resolution...... 662 x 280                                  IMDb URL..........:http://www.imdb.com/title/tt0892791/


DETAILS:

Video
ID                               : 0
Format                           : MPEG-4 Visual
Format profile                   : Advanced [email protected]
Format settings, BVOP            : Yes
Format settings, QPel            : No
Format settings, GMC             : No warppoints
Format settings, Matrix          : Default (MPEG)
Muxing mode                      : Packed bitstream
Codec ID                         : XVID
Codec ID/Hint                    : XviD
Duration                         : 1h 18mn
Bit rate                         : 2 362 Kbps
Width                            : 662 pixels
Height                           : 280 pixels
Display aspect ratio             : 2.35:1
Frame rate                       : 25.000 fps
Resolution                       : 8 bits
Colorimetry                      : 4:2:0
Scan type                        : Progressive
Bits/(Pixel*Frame)               : 0.510
Stream size                      : 1.29 GiB (94%)
Writing library                  : XviD 1.2.1 (UTC 2008-12-04)

Audio
ID                               : 1
Format                           : MPEG Audio
Format version                   : Version 1
Format profile                   : Layer 3
Codec ID                         : 55
Codec ID/Hint                    : MP3
Duration                         : 1h 18mn
Bit rate mode                    : Constant
Bit rate                         : 128 Kbps
Channel(s)                       : 2 channels
Sampling rate                    : 44.1 KHz
Stream size                      : 71.7 MiB (5%)
Alignment                        : Split accross interleaves
Interleave, duration             : 40 ms (1.00 video frame)
Interleave, preload duration     : 500 ms


NOTES:

IMAGiNE bringing you another release..... Shrek Forever After

First off many thanks to Relizlab for the video source and PrisM for the line audio... Thanks both
Well we balanced the colours out,made it a touch sharper and also used a smoother and changed the brightness, contrast and chroma.
Then it was just syncing PrisM's audio to it. Its surely not the best source out, but is watchable for now.

Enjoy





### SCREEN ###


Shrek Forever After (2010) TS.XViD-IMAGiNE




| Najlepsza dostępna jakość w sieci! |
| Sprawdzony upload na szybkim serwerze |
| Cały film w jednym linku |




Shrek Forever After (2010) TS.XViD-IMAGiNE
Aby zobaczyć ukryty tekst musisz być zalogowany, jeżeli nie masz konta zarejestruj się!



Podziel się !

Delicious'da Share  Share on Facebook  Friendfeed Share  Google Shared  StubmleUpon'da Share  Digg'de Share  Netvibes'de Share  Reddit'de Share RSS Feeds Subscribe!

Powrót
Przeglądasz witrynę jako gość.
Dlatego zachęcamy do rejestracji lub do zalogowania się.

Informacja
Użytkownicy z rangą Gość nie mogą dodawać komentarzy.