Menu

Download

Dziś nas odwiedzili:
BULIAJ, Karlos2150, sproket1, Faldzik, jurczyna, sailent, swen7, rutkowski20, balanga11, bodekk2, skyluk, elasuc, anetam1, Ireland29, smoksmok31, Mlody12478, trez, santa3, szymo14, mart73, Antek, kalimieckrowa, zampel, zenon331, puedros57, omega1204, Kamirllo105, bardini, wojtas1000, rw57, Bodzio57, momo1410, kwankrzy1, Donaj, picer123, pietiak77, tomek7221, barteklublin111, johnyb70, cyrzan4, tomaszlegion, Ashigari, karbor83, bolo335, Sdrov, marcindziki1, pit.7777, jarro40, mirunia22, pysiu_m, kacper2008, szukisek, calineczka92, 3366, djlemur, ralf1976, schmeichel27, cycek77, zyga, matrix^81, robertinoac1, cwiras22, jano666, tedxvs, pika01, semira, Proton_1x, Rogall, lukasz10051, karat, tadeuszo7, majag88, tlisiak80, splittt, piotr1666, iruss3, piotrekBa, mrozek8, tom811, wasyl75, zpcytadela, tyciuni, jacaalvaro, Lorenz, robanek01, tomaszo1948, syaro, camil_86, wafel_ll, kroll5, tomsosna, JoXs, trigall, tomaszek24, pj_79, kalwap3, Creative, pentor, pixel1194, benq77, hahn, podol76, lukaszek17, skrzyneczka112, kajtek42, amus2, areczek971, incubus, karton1, przemo_geremi, sayo300, PumaXP, ARTUROSE, 2lon, monsun65, lukasz666666, adamusasior122, drenn1, bogdanbig, waclaw, jaco013, kanzas, kwasek, Grad13, clarion, ciawek, tomek i ania, Sypi, rumak83, migotek, Trytonik, Fedor11, ElemenT8822, ziuta, raabartek, jeno10, bialy219, xmiro, fragles23, ulaghost, andy08, krepel, Konradp23, mwita3, seat1234, kolektor77, lysy68, andrzejpfx, slapot78, MarczelM, rodzynek1983, FALKON69, Feniks101, gargamel_50, biggreg, wlodek66, waawr, pawnan, tobi180, mlody2205, mangus, MISIU11, lauenburg, seba512, luizatomek, beduin666, latos2005, misio1960, pychu007, Bobbis, whisky65, xxvxx5, cze, bronek65, darekgl1968, draco, klymvm, Liar, lonej1, Grav1ty, Manias01, brovarek123, PadrePio, mach12, zakopne, pudlisz, slawo79, topikos, WeilandT, weenzer, ciołek12, mondia, lorak56, szturmen, piterd14, levy52, misiu1185, pawciopokemon, romi1976, kkk244240, Petair, bulkotnik, kasi, adox80, crownart, renka, pirek, Estek1, Bartekn90, kudek01, aspekt2004, buruburu, laewa, Zelwik, yonk, solgerx, miodowe, koziorożec, mp3de, artfrst, vermigor, agary35, adam1neo, dejw, joyeczek, Sarima, mart1nof, GunHead, pawel19677m, Siegfried, geniusloci, pitereku, lepper, sharp_99, baraxx, Krakus51, buku54, fazzy99, figo73, inesimariusz, angelo1969, pepik11, mariant, grzes997, foch5r, eneasz, igi2, arkadiusz271, gawron.1983, spoli, darekbus, wotar, paul zawadzki, kako181, jasiek700, wytaczarz44, Oscar58, topolski, druidx, polska00, pipipiotr, eree, spot2302, Marek.b58, nonez, jerry1013, robaczio9, xard2906, janek12, botox35, piurored123, bylik71, akak1, RUFO, artekplay, EdiMar, wawa998, jinks13, andjey, mks, circus, celin, 17051970, jacekgmk, ahagner, alex, rysiek975, Matthew67, przemek.c, mpawel71, Erik, jpwko, snayper, mogo76, jarecki500, mardra1, miesniak, Auto-Lux, Cirrus, lopez138, P.P.P., mariusz242, Zakapior77, aro383, crashed323, BONZOH, aj 1971, amfa07, slawol666, Vanisz, adrianno, tom7517, spam9580, gento, Seba1984r, narkusdwa, fox57, skajla, andino, virginiaa, Ambasadoor70, EFBOT, Svilesis, CCC59KXJ

Archiwum:
Grudzień 2016 (334)
Listopad 2016 (2437)
Październik 2016 (1966)
Wrzesień 2016 (1859)
Sierpień 2016 (2523)
Lipiec 2016 (2609)


Pokaż wszystkie tagi:
Wejścia na Vorek.pl z:
{referer}



NABÓR NA STANOWISKO


MODERATOR        UPLOADER



Epoka Lodowcowa 3 Era Dinozaurów / Ice Age 3 Dawn Of The Dinosaurs (2009)

BluRayRIP 720p AC3 5.1 dubbing PL

Mój upload na koncie Premium Rapidshare - linki nigdy nie wygasną

10% dane naprawcze
Sprawdzone linki
Sprawdzone archiwa
Brak błędów CRC



Epoka Lodowcowa 3 Era Dinozaurów / Ice Age 3 Dawn Of The Dinosaurs BluRayRIP dubbing PL



General
BlueRayRIP.mkv
Format : Matroska
File size : 1.91 GiB
Duration : 1h 34mn
Overall bit rate : 2 904 Kbps

Video
ID : 1
Format : AVC
Format/Info : Advanced Video Codec
Format profile : [email protected]
Format settings, CABAC : Yes
Format settings, ReFrames : 5 frames
Muxing mode : Container [email protected]
Codec ID : V_MPEG4/ISO/AVC
Duration : 1h 33mn
Bit rate : 2 463 Kbps
Nominal bit rate : 2 519 Kbps
Width : 1 280 pixels
Height : 688 pixels
Display aspect ratio : 1.860
Frame rate : 23.976 fps
Resolution : 24 bits
Colorimetry : 4:2:0
Scan type : Progressive
Bits/(Pixel*Frame) : 0.117
Stream size : 1.62 GiB (85%)
Writing library : x264 core 73 r1243 2cd0054
Encoding settings : cabac=1 / ref=5 / deblock=1:0:0 / analyse=0x3:0x133 / me=umh / subme=7 / psy=1 / psy_rd=1.0:0.0 / mixed_ref=1 / me_range=16 / chroma_me=1 / trellis=1 / 8x8dct=1 / cqm=0 / deadzone=21,11 / chroma_qp_offset=-2 / threads=6 / nr=0 / decimate=1 / mbaff=0 / bframes=3 / b_pyramid=0 / b_adapt=1 / b_bias=0 / direct=1 / wpredb=1 / keyint=250 / keyint_min=25 / scenecut=40 / rc_lookahead=40 / rc=2pass / mbtree=1 / bitrate=2519 / ratetol=1.0 / qcomp=0.60 / qpmin=10 / qpmax=51 / qpstep=4 / cplxblur=20.0 / qblur=0.5 / ip_ratio=1.40 / aq=1:1.00

Audio
ID : 2
Format : AC-3
Format/Info : Audio Coding 3
Codec ID : A_AC3
Duration : 1h 34mn
Bit rate mode : Constant
Bit rate : 384 Kbps
Channel(s) : 6 channels
Channel positions : Front: L C R, Surround: L R, LFE
Sampling rate : 48.0 KHz
Video delay : 8ms
Stream size : 258 MiB (13%)
Language : Polish


Wycinek z filmu:


Aby zobaczyć ukryty tekst musisz być zalogowany, jeżeli nie masz konta zarejestruj się!

Party po 200 MB
Hasło: BRAK


Aby zobaczyć ukryty tekst musisz być zalogowany, jeżeli nie masz konta zarejestruj się!



Podziel się !

Delicious'da Share  Share on Facebook  Friendfeed Share  Google Shared  StubmleUpon'da Share  Digg'de Share  Netvibes'de Share  Reddit'de Share RSS Feeds Subscribe!

Powrót
Przeglądasz witrynę jako gość.
Dlatego zachęcamy do rejestracji lub do zalogowania się.

Informacja
Użytkownicy z rangą Gość nie mogą dodawać komentarzy.