Menu

Download

Dziś nas odwiedzili:
pentor, darekgl1968, jaco013, djlemur, Maciej2161, hellmucik, DeejayMalec, dulo123, MISIU11, tomaszo1948, elwro, lepper, demon190219, symoni2008, lopez76, buruburu, lukasz10051, virginiaa, podol76, lipenjusz, karol2005, Andi-diesel, mondia, Fedor11, zakopne, skalski72, Sebool53, jeak, ango, qczi, Tumek73, lenny79, fox57, swatfirerss, huarez44, dejw, lorak56, bazumi20, sharp_99, Lorenz, piurored123, mirek4321, Bóli123, trybsiu, foch5r, Auto-Lux, bodekk2, kriss86pl, GregorRox, FALKON69, mirunia22, magdajawor1, kiecio, Krakus51, 3366, Grzegorz72, P9N7, skajla, tat4, siwy710, BoloLVII, Sarima, aspekt2004, krepel, keram, akak1, kriszak, andy08, smoksmok31, ulaghost, danix20, slay25, gbur17, rumak83, arkadiusz271, adox80, narkusdwa, JoXs, szukisek, hopasiup, artfrst, ARTUROSE, Manias01, globline, jerry1013, papay100, aga2.05, lauenburg, kaszana27, Feniks101, vermigor, inesimariusz, serrafus, geniusloci, trez, pestka210, waldek77, kudek01, tedxvs, marian1999, konradko77, wojtasg, spoli, Marmur, robaczio9, pipipiotr, mariusz242, pepik11, robin163, gento, cichyd1, coruble, Uszka2001, jusia266, zable, buba48, polska00, biggreg, ryszardos69, sayo300, soko-p, splittt, celin, crownart, muldas, machoney1920, xard2906, angelo1969, Cirrus, zibiguzik, andjey, alex, wotar, EdiMar, topikos, weglownia, Bartekn90, buku54, pitereku, nonez, Vanisz, trixi i mila, jarecki500, aj 1971, skarabeusz, Seba1984r, szturmen, secundus, mp3de, wolfx95, Ashigari, tomex2u, and20, Zelwik, malczyce, matexe, cwiras22, jurekaw, EFBOT, monsun65, Svilesis

Archiwum:
Grudzień 2016 (852)
Listopad 2016 (2433)
Październik 2016 (1961)
Wrzesień 2016 (1857)
Sierpień 2016 (2521)
Lipiec 2016 (2605)


Pokaż wszystkie tagi:
Wejścia na Vorek.pl z:
{referer}



NABÓR NA STANOWISKO


MODERATOR        UPLOADER



TEKKEN Blood Vengeance (2011) BluRay m720p DualAudio AC3 x264-DX ENG/JPN Napisy PL

TEKKEN Blood Vengeance (2011) BluRay m720p DualAudio AC3 x264-DX ENG/JPN Napisy PL

Info:
http://www.imdb.com/title/tt2005363/



Tekken: Blood Vengeance to pełnometrażowa animacja, w której pojawiają się bohaterowie jednej
z najpopularniejszych serii bijatyk.

Tekken.Blood.Vengeance.2011.BluRay.m720p.DualAudioAC3.ENG.JPN.x264-DX.mkv
Format : Matroska
File size : 1.84 GiB
Duration : 1h 32mn
Overall bit rate : 2 862 Kbps
Video #1
ID : 1
Format : AVC
Format profile : [email protected]
Duration : 1h 32mn
Bit rate : 2 037 Kbps
Nominal bit rate : 2 127 Kbps
Width : 1 280 pixels
Height : 720 pixels
Display aspect ratio : 16:9
Frame rate : 23.976 fps
Resolution : 24 bits
Colorimetry : 4:2:0
Scan type : Progressive
Bits/(Pixel*Frame) : 0.092
Stream size : 1.31 GiB (71%)
Writing library : x264 core 112
Audio #2
ID : 2
Format : AC-3
Bit rate : 384 Kbps
Channel(s) : 6 channels
Channel positions : Front: L C R, Surround: L R, LFE
Sampling rate : 48.0 KHz
Stream size : 253 MiB (13%)
Title : English AC3
Language : English
Audio #3
ID : 3
Format : AC-3
Bit rate : 384 Kbps
Channel(s) : 6 channels
Channel positions : Front: L C R, Surround: L R, LFE
Sampling rate : 48.0 KHz
Stream size : 253 MiB (13%)
Title : Japanes AC3
Language : Japanese
Text #4
ID : 4
Format : SSA
Codec ID : S_TEXT/SSA
Codec ID/Info : Sub Station Alpha
Title : Polish TXT
Language [sub] : Polish


Aby zobaczyć ukryty tekst musisz być zalogowany, jeżeli nie masz konta zarejestruj się!




Podziel się !

Delicious'da Share  Share on Facebook  Friendfeed Share  Google Shared  StubmleUpon'da Share  Digg'de Share  Netvibes'de Share  Reddit'de Share RSS Feeds Subscribe!

Powrót
Przeglądasz witrynę jako gość.
Dlatego zachęcamy do rejestracji lub do zalogowania się.

Informacja
Użytkownicy z rangą Gość nie mogą dodawać komentarzy.