Menu

Download

Dziś nas odwiedzili:
Ireland29, priv, masterp, pawel19677m, mahone78, miesniak, EdiMar, miodowe, marian1999, Tadex2014, renka, tomquz, nonez, miszka1005, zpcytadela, secundus, lipenjusz, wasyl75, DeejayMalec, cwiras22, martin7011, 4lolek4, pitereku, JoXs, agary35, robanek01, narkusdwa, bronek65, adamusasior122, bastion4, rufinone, sir daro 24, mogo76, swen7, rodzynek1983, laewa, joanna72, yasiorek, MarczelM, levy52, igi2, MIREK11111, vampire69, wiesiek1970, lepper, eree, mwita3, trigall, pysiu_m, radek1980, kudek01, bowe1969, Krakus51, wytaczarz44, yonk, dumdum23, rumak83, mara46, maniek2203, lonej1, worlok11, amfa07, weglownia, jano666, Painkiller212, Marmur, pirek, adam1neo, Liar, kamyk70, tobi180, ralf1976, lukaszek17, Optimus22, bunio238, jedyna123, janusz26, Ebola Here, and20, weronis, MARIULA500, dejw, waclaw, golden2, koczkodan, kuras, sznurowski, tomek i ania, lorak56, szefiii, terry258, cycek77, akak1, Uszka2001, pawmot, Taktyk91, janek1888, dulo123, darekgl1968, foch5r, areczek971, papay100, pychu007, zynio, BoloLVII, Krzysztof1973, jasiufasola, czesie_k, lauratcv, tadeuszo7, djlemur, pentor, ciołek12, krzysiek850307, matey777, tomaszo1948, GunHead, skarabeusz, sandacz53, kajtek42, piła, tomek7221, anita13, andy08, victory04, benq77, buruburu, iwonaro, robaczio9, coruble, buba48, keram, baraxx, Creative, shemi, lukasz10051, cze, szukisek, virginiaa, margaretka62, tat4, monsun65, lordsiur, kubus009, jacolcom, mlody2205, seat1234, moje401, ARTUROSE, kaczy24, Ambasadoor70, Andi-diesel, lopez76, zakopne, adox80, huarez44, jerry1013, mp3de, Manias01, lucky170, siwy710, mach12, stanley_pl, krywan, ASTERGO, mariant, mpawel71, LeoMarkus, Zelwik, FALKON69, aspekt2004, prularis, toczev, weenzer, podol76, Prospector00, Auto-Lux, marek6408, Bodzio57, lauenburg, Sdrov, spoli, Trytonik, czesiek1964, qczi, grygol2, wotar, slay25, kkk244240, maciej1900, jeak, arkadiusz271, RUFO, mirek4321, bolo335, symoni2008, DARO67, glut1510, wojtasg, solgerx, Sypi, pepik11, Lukas8, jszlom, luka121212, piotrek38, ryszardos69, sayo300, sita1204, zibim, trybsiu, angelo1969, crownart, Feniks101, celin, polska00, gawron.1983, splittt, jedrek00711, pipipiotr, mariusz242, Rogall, alex, andjey, Cirrus, kasi, Bartekn90, saper7206, drenn1, xard2906, Ashigari, aj 1971, andrzejdkl2, buku54, jarecki500, tedxvs, mani4444, ramon, singielka30, sproket1, Vanisz, Kamirllo105, gento, tristan_mk, skajla, Abdul_wisimulacha, biggreg, bialy219, bil, pbpbpbpbpb, EFBOT, Svilesis

Archiwum:
Grudzień 2016 (439)
Listopad 2016 (2437)
Październik 2016 (1965)
Wrzesień 2016 (1859)
Sierpień 2016 (2523)
Lipiec 2016 (2609)


Pokaż wszystkie tagi:
Wejścia na Vorek.pl z:
{referer}



NABÓR NA STANOWISKO


MODERATOR        UPLOADER



The Messenger
(2009) DVDRip Xvid AC3-*THC*

The Messenger (2009) DVDRip Xvid AC3-*THC*



### OPIS ###

Dwóch amerykańskich żołnierzy, po powrocie z Iraku dostają zadanie od armii- będą informować rodziny poległych, o śmierci ich bliskich. Weterani szybko zaprzyjaźniają się ze sobą, cementując swoją znajomość wojennymi wspomnieniami, wspólnymi imprezami czy wypadami na dziewczyny







### iNFO ###



General
Complete name : E:\The Messenger DVDRip Xvid AC3-THC\The Messenger DVDRip Xvid AC3-THC.avi
Format : AVI
Format/Info : Audio Video Interleave
Format profile : OpenDML
File size : 1.13 GiB
Duration : 1h 52mn
Overall bit rate : 1 431 Kbps
Writing application : AVI-Mux GUI 1.17.8.3, Feb 16 201019:42:50

Video
ID : 0
Format : MPEG-4 Visual
Format profile : Advanced [email protected]
Format settings, BVOP : Yes
Format settings, QPel : No
Format settings, GMC : No warppoints
Format settings, Matrix : Default (MPEG)
Codec ID : XVID
Codec ID/Hint : XviD
Duration : 1h 52mn
Bit rate : 978 Kbps
Width : 720 pixels
Height : 304 pixels
Display aspect ratio : 2.35:1
Frame rate : 23.976 fps
Color space : YUV
Chroma subsampling : 4:2:0
Bit depth : 8 bits
Scan type : Progressive
Bits/(Pixel*Frame) : 0.186
Stream size : 790 MiB (68%)
Writing library : XviD 1.2.1 (UTC 2008-12-04)

Audio
ID : 1
Format : AC-3
Format/Info : Audio Coding 3
Mode extension : CM (complete main)
Codec ID : 2000
Duration : 1h 52mn
Bit rate mode : Constant
Bit rate : 448 Kbps
Channel(s) : 6 channels
Channel positions : Front: L C R, Side: L R, LFE
Sampling rate : 48.0 KHz
Bit depth : 16 bits
Stream size : 362 MiB (31%)
Alignment : Aligned on interleaves
Interleave, duration : 64 ms (1.53 video frames)
Interleave, preload duration : 192 ms
Title : VTS_01_1 T81 3_2ch 448Kbps DELAY 0ms

Actors: Woody Harrelson, Ben Foster, Samantha Morton, Jena Malone
Directors: Oren Moverman
Language: English (Dolby Digital 2.0 Stereo), English (Dolby Digital 5.1)
Subtitles: English
Rated: R (Restricted)
Studio: Oscilloscope Laboratories
DVD Release Date: May 18, 2010
Run Time: 112 minutes
Sample Included: Yes



The Messenger (2009) DVDRip Xvid AC3-*THC*

The Messenger (2009) DVDRip Xvid AC3-*THC*







### DOWNLOAD ###


DOWNLOAD LINK'S - 400MB PART'S:
Aby zobaczyć ukryty tekst musisz być zalogowany, jeżeli nie masz konta zarejestruj się!


DOWNLOAD LINK'S - 400MB PART'S:
Aby zobaczyć ukryty tekst musisz być zalogowany, jeżeli nie masz konta zarejestruj się!


DOWNLOAD LINK'S - 400MB PART'S:
Aby zobaczyć ukryty tekst musisz być zalogowany, jeżeli nie masz konta zarejestruj się!



Podziel się !

Delicious'da Share  Share on Facebook  Friendfeed Share  Google Shared  StubmleUpon'da Share  Digg'de Share  Netvibes'de Share  Reddit'de Share RSS Feeds Subscribe!

Powrót
Przeglądasz witrynę jako gość.
Dlatego zachęcamy do rejestracji lub do zalogowania się.

Informacja
Użytkownicy z rangą Gość nie mogą dodawać komentarzy.