Menu

Download

Dziś nas odwiedzili:
Archiwum:
Grudzień 2016 (232)
Listopad 2016 (2437)
Październik 2016 (1966)
Wrzesień 2016 (1859)
Sierpień 2016 (2523)
Lipiec 2016 (2609)


Pokaż wszystkie tagi:
Wejścia na Vorek.pl z:
{referer}



NABÓR NA STANOWISKO


MODERATOR        UPLOADER



Mirrors 2 UNRATED
(2010) DVDRiP XViD AC3-LEGi0N

Mirrors 2 UNRATED (2010) DVDRiP XViD AC3-LEGi0N



### OPIS ###

Max Matheson próbuje dojść do siebie po wypadku samochodowym, w którym zginęła jego narzeczona. Zatrudnia się jako nocny stróż w sklepie swojego ojca. Niespodziewanie zaczynają dziać się dziwne i przerażające rzeczy: jego współpracownicy zostają zamordowani a on zaczyna widzieć w sklepowych lustrach postać tajemniczej kobiety.







### iNFO ###



General
Format: AVI
File size: 1.37 GiB
Duration: 1h 30mn
Overall bit rate : 2 175 Kbps
IMDb Rating: 4.8/10
Genre: Horror | Mystery | Thriller
Release: 19 October 2010
IMDb Link: http://www.imdb.com/title/tt1576699/
Trailer: http://www.youtube.com/watch?v=cj5FPro4YSE
Source: DVDR-KART3LDVD
Subs: N/A
Encoded By : HiTM4N

Video
Format: MPEG-4 Visual
Format profile: Advanced [email protected]
Format settings, BVOP: Yes
Format settings, QPel: No
Format settings, GMC : No warppoints
Muxing mode: Packed bitstream
Codec ID: XVID
Bit rate: 1 717 Kbps
Width: 720 pixels
Height: 400 pixels
Display aspect ratio: 16:9
Frame rate: 23.976 fps
Chroma subsampling: 4:2:0
Bit depth: 24 bits
Scan type: Progressive
Bits/(Pixel*Frame): 0.249
Stream size: 1.08 GiB

Audio
Format: AC3
Bit rate mode: Constant
Bit rate: 448 Kbps
Channel(s): 6 channels
Sampling rate: 48.0 KHz
Stream size: 289 MiB



Mirrors 2 UNRATED (2010) DVDRiP XViD AC3-LEGi0N

Mirrors 2 UNRATED (2010) DVDRiP XViD AC3-LEGi0N

Mirrors 2 UNRATED (2010) DVDRiP XViD AC3-LEGi0N





### DOWNLOAD ###


DOWNLOAD LINK'S - 400MB PART'S:
Aby zobaczyć ukryty tekst musisz być zalogowany, jeżeli nie masz konta zarejestruj się!



Podziel się !

Delicious'da Share  Share on Facebook  Friendfeed Share  Google Shared  StubmleUpon'da Share  Digg'de Share  Netvibes'de Share  Reddit'de Share RSS Feeds Subscribe!

Powrót
Przeglądasz witrynę jako gość.
Dlatego zachęcamy do rejestracji lub do zalogowania się.

Informacja
Użytkownicy z rangą Gość nie mogą dodawać komentarzy.