Menu

Download

Dziś nas odwiedzili:
Archiwum:
Grudzień 2016 (499)
Listopad 2016 (2434)
Październik 2016 (1961)
Wrzesień 2016 (1857)
Sierpień 2016 (2521)
Lipiec 2016 (2605)


Pokaż wszystkie tagi:
Wejścia na Vorek.pl z:
{referer}



NABÓR NA STANOWISKO


MODERATOR        UPLOADER



Jak wytresować smoka? / How To Train Your Dragon
(2010) 1CD DVDRip XviD Mp3 iMN

Jak wytresować smoka? / How To Train Your Dragon



### OPIS ###

Producenci "Shreka", „Madagaskaru" i „Kung Fu Pandy" przedstawiają film na podstawie książki Cressidy Cowell „Jak wytresować smoka", której akcja rozgrywa się w świecie Wikingów i dzikich smoków. Bohaterem filmu jest nastoletni Wiking mieszkający na wyspie Berk, gdzie walki ze smokami są codziennością. Zbliża się właśnie czas inicjacji i jedyna szansa na udowodnienie plemieniu i ojcu swojej wartości. Kiedy jednak okazuje się, że zamiast wytresować smoka, nastolatek zaprzyjaźnia się z nim, cały jego świat staje na głowie.







### iNFO ###



Video
ID : 0
Format : MPEG-4 Visual
Format profile : Advanced [email protected]
Format settings, BVOP : Yes
Format settings, QPel : Yes
Format settings, GMC : No warppoints
Format settings, Matrix : Default (H.263)
Codec ID : XVID
Codec ID/Hint : XviD
Duration : 1h 37mn
Bit rate : 853 Kbps
Width : 640 pixels
Height : 272 pixels
Display aspect ratio : 2.35:1
Frame rate : 23.976 fps
Color space : YUV
Chroma subsampling : 4:2:0
Bit depth : 8 bits
Scan type : Progressive
Bits/(Pixel*Frame) : 0.204
Stream size : 597 MiB (87%)
Writing library : XviD 1.2.1 (UTC 2008-12-04)

Audio
ID : 1
Format : MPEG Audio
Format version : Version 1
Format profile : Layer 3
Mode : Joint stereo
Mode extension : MS Stereo
Codec ID : 55
Codec ID/Hint : MP3
Duration : 1h 37mn
Bit rate mode : Variable
Bit rate : 117 Kbps
Nominal bit rate : 128 Kbps
Channel(s) : 2 channels
Sampling rate : 48.0 KHz
Stream size : 81.9 MiB (12%)
Alignment : Aligned on interleaves
Interleave, duration : 24 ms (0.58 video frame)
Interleave, preload duration : 72 ms
Title : VTS_07_1 T80 3_2ch 448Kbps DELAY 0ms_new
Writing library : LAME3.98r
Encoding settings : -m j -V 4 -q 2 -lowpass 17 --abr 128

Size 685.240 MB



Jak wytresować smoka? / How To Train Your Dragon

Jak wytresować smoka? / How To Train Your Dragon


Jak wytresować smoka? / How To Train Your Dragon


Jak wytresować smoka? / How To Train Your Dragon


Jak wytresować smoka? / How To Train Your Dragon





### DOWNLOAD ###


DOWNLOAD LINK'S - 400MB PART'S:
Aby zobaczyć ukryty tekst musisz być zalogowany, jeżeli nie masz konta zarejestruj się!



Podziel się !

Delicious'da Share  Share on Facebook  Friendfeed Share  Google Shared  StubmleUpon'da Share  Digg'de Share  Netvibes'de Share  Reddit'de Share RSS Feeds Subscribe!

Powrót
Przeglądasz witrynę jako gość.
Dlatego zachęcamy do rejestracji lub do zalogowania się.

Informacja
Użytkownicy z rangą Gość nie mogą dodawać komentarzy.