Menu

Download

Dziś nas odwiedzili:
Archiwum:
Grudzień 2016 (673)
Listopad 2016 (2434)
Październik 2016 (1961)
Wrzesień 2016 (1857)
Sierpień 2016 (2521)
Lipiec 2016 (2605)


Pokaż wszystkie tagi:
Wejścia na Vorek.pl z:
{referer}



NABÓR NA STANOWISKO


MODERATOR        UPLOADER



Inception.2010.480p.TS.XviD-ViSiON [2 SERWY]



Inception.2010.480p.TS.XviD-ViSiON [2 SERWY]

Inception.2010.480p.TS.XviD-ViSiON [2 SERWY]



Inception.2010.480p.TS.XviD-ViSiON [2 SERWY]



Inception.2010.480p.TS.XviD-ViSiON [2 SERWY]



Inception.2010.480p.TS.XviD-ViSiON [2 SERWY]


Z TEJ WERSJI:


Inception.2010.480p.TS.XviD-ViSiON [2 SERWY]



Inception.2010.480p.TS.XviD-ViSiON [2 SERWY]



Inception.2010.480p.TS.XviD-ViSiON [2 SERWY]



Inception.2010.480p.TS.XviD-ViSiON [2 SERWY]






Inception.2010.480p.TS.XviD-ViSiON [2 SERWY]

Film Incepcja opowiada o możliwościach ingerowania w ludzkie umysły za pomocą specjalistycznej technologii, która wykorzystuje metodę iniekcji. DiCaprio, wciela się w szefa zespołu specjalizującego się w dokonywaniu podróży po umysłach innych osób. Takie podróże mogą zarówno umożliwiać zdobycie informacji jak i wprowadzanie danych

Reżyseria: Christopher Nolan
Scenariusz: Christopher Nolan
Premiera: 2010-07-30 (Polska) 2010-07-15 (Świat)
Gatunek: Sci-Fi | Akcja | Thriller
Dystrybutor: Warner Bros.

DETAILS:

Video

ID : 0
Format : MPEG-4 Visual
Format profile : Advanced [email protected]
Format settings, BVOP : Yes
Format settings, QPel : No
Format settings, GMC : No warppoints
Format settings, Matrix : Default (MPEG)
Muxing mode : Packed bitstream
Codec ID : XVID
Codec ID/Hint : XviD
Duration : 2h 14mn
Bit rate : 1 321 Kbps
Width : 720 pixels
Height : 304 pixels
Display aspect ratio : 2.35
Frame rate : 25.000 fps
Resolution : 24 bits
Colorimetry : 4:2:0
Scan type : Progressive
Bits/(Pixel*Frame) : 0.241
Stream size : 1.24 GiB (87%)
Writing library : XviD 1.2.1 (UTC 2008-12-04)

Audio

ID : 1
Format : MPEG Audio
Format version : Version 1
Format profile : Layer 3
Codec ID : 55
Codec ID/Hint : MP3
Duration : 2h 14mn
Bit rate mode : Constant
Bit rate : 192 Kbps
Channel(s) : 2 channels
Sampling rate : 48.0 KHz
Resolution : 16 bits
Stream size : 185 MiB (13%)
Alignment : Split accross interleaves
Interleave, duration : 40 ms (1.00 video frame)
Interleave, preload duration : 500 ms





Inception.2010.480p.TS.XviD-ViSiON [2 SERWY]

Linki / Linki
Aby zobaczyć ukryty tekst musisz być zalogowany, jeżeli nie masz konta zarejestruj się!


SINGLE LINK
Aby zobaczyć ukryty tekst musisz być zalogowany, jeżeli nie masz konta zarejestruj się!



Podziel się !

Delicious'da Share  Share on Facebook  Friendfeed Share  Google Shared  StubmleUpon'da Share  Digg'de Share  Netvibes'de Share  Reddit'de Share RSS Feeds Subscribe!

Powrót
Przeglądasz witrynę jako gość.
Dlatego zachęcamy do rejestracji lub do zalogowania się.

Informacja
Użytkownicy z rangą Gość nie mogą dodawać komentarzy.