Menu

Download

Dziś nas odwiedzili:
Archiwum:
Grudzień 2016 (851)
Listopad 2016 (2433)
Październik 2016 (1961)
Wrzesień 2016 (1857)
Sierpień 2016 (2521)
Lipiec 2016 (2605)


Pokaż wszystkie tagi:
Wejścia na Vorek.pl z:
{referer}



NABÓR NA STANOWISKO


MODERATOR        UPLOADER

Autor: k6io6
Data: 22 Lipiec 2010
Kategoria: FILMY
0


Knight and Day TS XviD-FLAWL3SS

Knight and Day TS XviD-FLAWL3SS

Video
ID : 0
Format : MPEG-4 Visual
Format profile : Advanced [email protected]
Format settings, BVOP : Yes
Format settings, QPel : No
Format settings, GMC : No warppoints
Format settings, Matrix : Default (MPEG)
Codec ID : XVID
Codec ID/Hint : XviD
Duration : 1h 44mn
Bit rate : 1 732 Kbps
Width : 636 pixels
Height : 290 pixels
Display aspect ratio : 2.35:1
Frame rate : 25.000 fps
Resolution : 8 bits
Colorimetry : 4:2:0
Scan type : Progressive
Bits/(Pixel*Frame) : 0.376
Stream size : 1.26 GiB (93%)
Writing library : XviD 1.2.1 (UTC 2008-12-04)

Audio
ID : 1
Format : MPEG Audio
Format version : Version 1
Format profile : Layer 3
Codec ID : 55
Codec ID/Hint : MP3
Duration : 1h 44mn
Bit rate mode : Constant
Bit rate : 128 Kbps
Channel(s) : 2 channels
Sampling rate : 44.1 KHz
Video delay : 9s 0ms
Stream size : 95.3 MiB (7%)
Alignment : Split accross interleaves
Interleave, duration : 40 ms (1.00 video frame)
Interleave, preload duration : 500 ms



Film akcji w reżyserii Jamesa Mangolda, twórcy "Spaceru po linie", który producenci porównują do "Mr. and Mrs. Smith". Akcja filmu rozgrywa się wokół uciekającej pary przeżywającą zapierającą dech w piersiach, a czasem śmiertelnie niebezpieczną, przygodę, w której nic nie jest takie, jak się wydaje... nawet główni bohaterowie. Pośród zmieniających się sojuszy i niespodziewanych zdrad, przemierzają glob, lecz ich przeżycie w ostatecznym rozrachunku zależeć będzie od wyniku bitwy prawda kontra zaufanie.

Aby zobaczyć ukryty tekst musisz być zalogowany, jeżeli nie masz konta zarejestruj się!



Podziel się !

Delicious'da Share  Share on Facebook  Friendfeed Share  Google Shared  StubmleUpon'da Share  Digg'de Share  Netvibes'de Share  Reddit'de Share RSS Feeds Subscribe!

Powrót
Przeglądasz witrynę jako gość.
Dlatego zachęcamy do rejestracji lub do zalogowania się.

Informacja
Użytkownicy z rangą Gość nie mogą dodawać komentarzy.