Menu

Download

Dziś nas odwiedzili:
szukisek, marcindziki1, mwita3, rumak83, eneasz, zbeer, bokser123, slabin, buku54, ravler89, zachod25, nowmarek, trigall, ango, mach12, cze, Mario090673, wloodo, aka93, demon190219, misek1, miecio28, ralf1976, jacolcom, pentor, gbur17, jurek50, tomaszo1948, pawel97, szturmen, narkusdwa, malczyce, piterd14, szakal, dulo123, mks, jupkeennss, rutkowski20, waldek77, gerard, qczi, adikos34, topikos, Feniks101, enigma1952, adam101102, bokkosa, supperbin, lukasz10051, Matthew67, osa31, sowiczi, zakopne, weenzer, pucini, papay100, darekbus, jpwko, buba48, pixel1194, mrozek8, mamata, keram, virginiaa, matey777, baraxx, danix20, wfman, drls1989, Krakus51, adox80, trez, lauratcv, Sarima, marian1999, aspekt2004, mobil199, kajtek42, lyser, mariant, LeoMarkus, jinks13, posejdon, Sdrov, wojtasg, ASTERGO, wotar, lordsiur, lepper, Painkiller212, rencista39, arkadiusz271, crownart, sayo300, krepel, andy08, monisia5, spoli, miodowe, mondia, Sypi, jeak, krys49, grygol2, misiu1185, symoni2008, Manias01, Lukas8, kamelot2012, Uszka2001, RUFO, maciej1900, fox57, kudek01, jerry1013, tedxvs, pipipiotr, konradko77, margaretka62, elwro, zibim, splittt, ryszardos69, tobi180, jano666, jusia266, pepik11, kat666, krewetka105, biggreg, Cirrus, xard2906, piotrek38, Beno182210, Kwiatek2009, alex, skarabeusz, Bartekn90, andjey, Vanisz, angelo1969, celin, mp3de, Zelwik, brovarek123, P.P.P., jarecki500, maruda3773, bazumi20, EdiMar, joanna72, aj 1971, ewa1971, Erik, Kamirllo105, mariusz242, skajla, Mussstaaang, ggtomy, secundus, Seba1984r, EFBOT, cris2111, Johanson325, Anastazja001, Svilesis, jurczyna, Trytonik, karbor83, momo1410, akak1, vasiwasyl

Archiwum:
Grudzień 2016 (745)
Listopad 2016 (2434)
Październik 2016 (1961)
Wrzesień 2016 (1857)
Sierpień 2016 (2521)
Lipiec 2016 (2605)


Pokaż wszystkie tagi:
Wejścia na Vorek.pl z:
{referer}



NABÓR NA STANOWISKO


MODERATOR        UPLOADER

Autor: k6io6
Data: 22 Lipiec 2010
Kategoria: FILMY
0


The Ghost Writer 2010 DVDRiP AC3 XViD - IMAGiNE

The Ghost Writer 2010 DVDRiP AC3 XViD - IMAGiNE

reżyseria: Roman Polański
scenariusz: Roman Polański
premiera: 19 lutego 2010 (Polska) 11 lutego 2010 (Świat)
produkcja: Francja, Niemcy, USA, Wielka Brytania
gatunek: Dramat, Thriller

Bohaterem filmu jest "Ghostwriter" - pisarz, który za pieniądze tworzy dla innych, oddając prawa do swego dzieła. Zostaje zaangażowany do napisania w imieniu byłego premiera Wielkiej Brytanii pamiętników. W trakcie prac nad książką, odkrywa sekrety, przez które znajduje się w śmiertelnym zagrożeniu.

Ewan McGregor ... The Ghost
Jon Bernthal ... Rick Ricardelli
Kim Cattrall ... Amelia Bly
Pierce Brosnan ... Adam Lang
Tim Preece ... Roy
James Belushi ... John Maddox
Olivia Williams ... Ruth Lang
Timothy Hutton ... Sidney Kroll
Anna Botting ... SKY TV Newsreader

The Ghost Writer 2010 DVDRiP AC3 XViD - IMAGiNE


Ripper ...........: IMAGiNE IMDB Rating.......:7.8/10
Video Codec.......: XVID Release Date......:18/07/10
Audio Codec.......:AC3 Theatre Date......:19/03/10
Audio Bitrate.....:448 Runtime.......:2h 08mn
Subtitles.........:NIL Language..........:ENGLISH
Resolution...... 704 x 304 IMDb URL..........:http://www.imdb.com/title/tt1139328/


DETAILS:

Video
Format : MPEG-4 Visual
Format profile : Streaming [email protected]
Format settings, BVOP : Yes
Format settings, QPel : No
Format settings, GMC : No warppoints
Format settings, Matrix : Default
Muxing mode : Packed bitstream
Codec ID : XVID
Codec ID/Hint : XviD
Duration : 2h 8mn
Bit rate : 1 813 Kbps
Width : 704 pixels
Height : 304 pixels
Display aspect ratio : 2.35
Frame rate : 23.976 fps
Resolution : 24 bits
Colorimetry : 4:2:0
Scan type : Progressive
Bits/(Pixel*Frame) : 0.353
Stream size : 1.63 GiB (80%)
Writing library : XviD 50

Audio
Format : AC-3
Format/Info : Audio Coding 3
Codec ID : 2000
Duration : 2h 8mn
Bit rate mode : Constant
Bit rate : 448 Kbps
Channel(s) : 6 channels
Channel positions : Front: L C R, Surround: L R, LFE
Sampling rate : 48.0 KHz
Stream size : 412 MiB (20%)
Alignment : Aligned on interleaves
Interleave, duration : 42 ms (1.00 video frame)
Interleave, preload duration : 512 ms


Aby zobaczyć ukryty tekst musisz być zalogowany, jeżeli nie masz konta zarejestruj się!



Podziel się !

Delicious'da Share  Share on Facebook  Friendfeed Share  Google Shared  StubmleUpon'da Share  Digg'de Share  Netvibes'de Share  Reddit'de Share RSS Feeds Subscribe!

Powrót
Przeglądasz witrynę jako gość.
Dlatego zachęcamy do rejestracji lub do zalogowania się.

Informacja
Użytkownicy z rangą Gość nie mogą dodawać komentarzy.