Menu

Download

Dziś nas odwiedzili:
Archiwum:
Grudzień 2016 (387)
Listopad 2016 (2437)
Październik 2016 (1965)
Wrzesień 2016 (1859)
Sierpień 2016 (2523)
Lipiec 2016 (2609)


Pokaż wszystkie tagi:
Wejścia na Vorek.pl z:
{referer}



NABÓR NA STANOWISKO


MODERATOR        UPLOADER

Autor: Misiek43
Data: 23 Maj 2010
Kategoria: FILMY
0


Robin Hood (2010) TS Xvid ELEKTRI4KA [2 SERWERY]



Robin Hood (2010) TS Xvid ELEKTRI4KA [2 SERWERY]



Robin Hood (2010) TS Xvid ELEKTRI4KA [2 SERWERY]



Robin Hood (2010) TS Xvid ELEKTRI4KA [2 SERWERY]







Robin Hood (2010) TS Xvid ELEKTRI4KA [2 SERWERY]




OPIS:

Najnowszy film Ridleya Scotta. Średniowieczna Anglia. Doświadczony łucznik Robin Hood służy w armii króla Ryszarda walczącego z Francuzami. Po jego śmierci udaje się do Nottingham, gdzie pod rządami despotycznego szeryfa szerzy się korupcja. Zakochany w Lady Marion Robin postawia uwolnić wioskę spod władzy szeryfa i zdobyć rękę ukochanej.




Tytuł............: Robin Hood
Produkcja........: USA , Wielka Brytania
Gatunek..........: Dramat, Kostiumowy, Przygodowy
Reżyseria........: Ridley Scott
Scenariusz.......: Brian Helgeland
Data Premiery....: 2010-05-14 (Polska) , 2010-05-12 (Świat)
Ocena IMDB.......: 7,4 ( 2,691 głosów)
Czas Trwania.....: 131 minut

Russell Crowe ... Robin Longstride
Cate Blanchett ... Marion Loxley
Max von Sydow ... Sir Walter Loxley
William Hurt ... William Marshal

*******

Format : AVI
Format/Info : Audio Video Interleave
File size : 1.37 GiB
Duration : 2h 7mn
Overall bit rate : 1 534 Kbps
Movie name : Robin Hood (2010)
Ripper : ELEKTRI4KA
Writing application : VirtualDubMod 1.5.10.2 (build 2540/release)

Video

ID : 0
Format : MPEG-4 Visual
Format profile : Advanced [email protected]
Format settings, BVOP : Yes
Format settings, QPel : Yes
Format settings, GMC : No warppoints
Format settings, Matrix : Default (H.263)
Codec ID : XVID
Codec ID/Hint : XviD
Duration : 2h 7mn
Bit rate : 1 333 Kbps
Width : 720 pixels
Height : 288 pixels
Display aspect ratio : 2.500
Frame rate : 25.000 fps
Resolution : 8 bits
Colorimetry : 4:2:0
Scan type : Progressive
Bits/(Pixel*Frame) : 0.257
Stream size : 1.19 GiB (87%)
Writing library : XviD 1.2.1 (UTC 2008-12-04)

Audio

LANGUAGE : ENGLISH!
ID : 1
Format : AC-3
Format/Info : Audio Coding 3
Codec ID : 2000
Duration : 2h 7mn
Bit rate mode : Constant
Bit rate : 192 Kbps
Channel(s) : 2 channels
Channel positions : L R
Sampling rate : 48.0 KHz
Stream size : 175 MiB (13%)
Alignment : Split accross interleaves
Interleave, duration : 40 ms (1.00 video frame)
Interleave, preload duration : 500 ms







Robin Hood (2010) TS Xvid ELEKTRI4KA [2 SERWERY]

Aby zobaczyć ukryty tekst musisz być zalogowany, jeżeli nie masz konta zarejestruj się!






Można pobierać naprzemiennie



Podziel się !

Delicious'da Share  Share on Facebook  Friendfeed Share  Google Shared  StubmleUpon'da Share  Digg'de Share  Netvibes'de Share  Reddit'de Share RSS Feeds Subscribe!

Powrót
Przeglądasz witrynę jako gość.
Dlatego zachęcamy do rejestracji lub do zalogowania się.

Informacja
Użytkownicy z rangą Gość nie mogą dodawać komentarzy.