Menu

Download

Dziś nas odwiedzili:
Archiwum:
Grudzień 2016 (363)
Listopad 2016 (2437)
Październik 2016 (1965)
Wrzesień 2016 (1859)
Sierpień 2016 (2523)
Lipiec 2016 (2609)


Pokaż wszystkie tagi:
Wejścia na Vorek.pl z:
{referer}



NABÓR NA STANOWISKO


MODERATOR        UPLOADER

Autor: k6io6
Data: 18 Styczeń 2011
Kategoria: FILMY
0


Little Fockers TS XViD v2 - IMAGiNE

Little Fockers TS XViD v2 - IMAGiNE

Little Fockers TS XViD v2 - IMAGiNE

W trzeciej części sagi rodzina Fockerów i Byrnesów oczekuje na nadejście pierwszego wnuka. W filmie poza znanymi z poprzednich części Robertem De Niro, Benem Stillerem, Dustinem Hoffmanem, Barbrą Streisand i Teri Polo zobaczymy takie gwiazdy jak Jessica Alba, Owen Wilson i Harvey Keitel.

Little Fockers TS XViD v2 - IMAGiNE

Dane Techniczne:

*********** **** **** *** ******** *********** **** *** **********
*+* +*+*+* *+*+*+ *+* *+* *+* *+* *+* *+*+* *+* *+*
+*+ +*+ +*+*+ +*+ +*+ +*+ +*+ +*+ *+*+*+ +*+ +*+
+$+ +$+ +*+ +$+ +$++*++$++* *$* +$+ +$+ +*+ +$+ +$++*++$
+$+ +$+ +$+ +$+ +$+ +$+ +$+$ +$+ +$+ +$+$+$ +$+
$+$ $+$ $+$ $+$ $+$ $+$ $+$ $+$ $+$ $+$+$ $+$
$$$$$$$$$$$ $$$ $$$ $$$ $$$ $$$$$$$$ $$$$$$$$$$$ $$$ $$$$ $$$$$$$$$$




Another Fine Release Brought to you from - IMAGiNE


********************************************************************************************************************
Little Fockers TS XViD v2 - IMAGiNE
********************************************************************************************************************

Ripper ...........:IMAGiNE IMDB Rating.......:5.3/10
Video Codec.......:XVID Release Date......:28/12/10
Audio Codec.......:MP3 Theatre Date......:22/12/10
Audio Bitrate.....:128 Runtime...........:1h 33mn
Subtitles.........:NIL Language..........:ENGLISH
Resolution........:720 x 400 IMDb URL..........:http://www.imdb.com/title/tt0970866/



DETAILS:

Video
ID : 0
Format : MPEG-4 Visual
Format profile : Advanced [email protected]
Format settings, BVOP : Yes
Format settings, QPel : No
Format settings, GMC : No warppoints
Format settings, Matrix : Default (MPEG)
Muxing mode : Packed bitstream
Codec ID : XVID
Codec ID/Hint : XviD
Duration : 1h 33mn
Bit rate : 1 973 Kbps
Width : 720 pixels
Height : 400 pixels
Display aspect ratio : 16/9
Frame rate : 25.000 fps
Resolution : 24 bits
Colorimetry : 4:2:0
Scan type : Progressive
Bits/(Pixel*Frame) : 0.274
Stream size : 1.29 GiB (93%)
Writing library : XviD 1.2.1 (UTC 2008-12-04)

Audio
ID : 1
Format : MPEG Audio
Format version : Version 1
Format profile : Layer 3
Codec ID : 55
Codec ID/Hint : MP3
Duration : 1h 33mn
Bit rate mode : Constant
Bit rate : 128 Kbps
Channel(s) : 2 channels
Sampling rate : 44.1 KHz
Resolution : 16 bits
Stream size : 85.6 MiB (6%)
Alignment : Split accross interleaves
Interleave, duration : 40 ms (1.00 video frame)
Interleave, preload duration : 500 ms


Little Fockers TS XViD v2 - IMAGiNE

Little Fockers TS XViD v2 - IMAGiNE

Aby zobaczyć ukryty tekst musisz być zalogowany, jeżeli nie masz konta zarejestruj się!



Podziel się !

Delicious'da Share  Share on Facebook  Friendfeed Share  Google Shared  StubmleUpon'da Share  Digg'de Share  Netvibes'de Share  Reddit'de Share RSS Feeds Subscribe!

Powrót
Przeglądasz witrynę jako gość.
Dlatego zachęcamy do rejestracji lub do zalogowania się.

Informacja
Użytkownicy z rangą Gość nie mogą dodawać komentarzy.