Menu

Download

Dziś nas odwiedzili:
karbor83, witek11, Ewelina05, keram, wasyl75, Feniks101, waclaw, lukasz10051, ave77, micpie8, ciechom, Ściągacz, dungs, rumak83, Mlody12478, 75tofik, tomek i ania, crownart, kriszak, fox57, miszka1005, adamusasior122, robanek01, miesniak, kaja110, ulaghost, priv, Fedor11, buruburu, mwita3, Krzysztof1973, Trytonik, pentor, zakopne, kikir3, tomaszo1948, Siegfried, sproket1, toxicnoiz, mzielony, Pitek2087, klymvm, jurszer, Wafelcmok, hiphop28, piurored123, Krakus51, yonk, jeak, skyluk, wafel_ll, CCC59KXJ, andy08, slapot78, janusz56, sandacz53, dusia2002, edmund54, huano877, ketez, lorak56, lonej1, amfa07, JoXs, nowmarek, incubus, bodek63, dejw, terry258, matrix^81, darekbus, agata38, igi2, ahagner, Thalia1, rodzynek1983, biggreg, ravler89, amfetaminka, ralf1976, narkusdwa, kudek01, dudikn, lepper, michas86, foch5r, przemas2232, Manias01, gerard, Uszka2001, virginiaa, bil, krzysiek850307, abaabaaba, jaco013, Estek1, mondia, geniusloci, krepel, solgerx, kanapkatorpedo, ciołek12, Sdrov, elasuc, picer123, Lukas8, danix20, janek12, ellah, areczek971, womi10, adox80, kacper2008, arkadiusz271, kat666, barteklublin111, demon190219, piotr1666, szybki811, Sarima, GunHead, bialy744q, spot2302, tlisiak80, Finder, mach12, kasi, aro383, Lorenz, MISIU11, riko121, intermilano, vermigor, zibi19979, pitereku, bronek65, pika01, akak1, pirek, wotar, adasek.u, weenzer, pychu007, latos2005, kalafior44, ziuta, eree, jusia266, jano666, kkk244240, ijorgu, 3366, wlodek55, baraxx, Dualhead, marcin_marcin, figo73, gawron.1983, ddrr, miro, robek4, wytaczarz44, dorkasevi, spoli, zajac26, angelo1969, slay25, lordsiur, xard2906, tom7517, fazzy99, eneasz, topolski, jinks13, tedxvs, karat, andrzejpfx, balanga11, mp3de, niguel, krzycho1985, buku54, pipipiotr, marecki43, mogo76, splittt, EdiMar, anetam1, AtlasGTX, pepik11, Bartekn90, alex, mks, lukaszek17, P.P.P., jedrek00711, aj 1971, jpwko, snayper, bylik71, Erik, jarek861029, iwonaro, andjey, xxMarek, mardra1, Ashigari, circus, iruss3, Cirrus, jarecki500, aspekt2004, Kamirllo105, Zelwik, mariusz242, Andi-diesel, Vanisz, brovarek123, jarro40, misiu1185, trivium, Estebes777, emilianox, spam9580, luzik5, skajla, sbb1953, tristan_mk, rutkowski20, EFBOT, Bóli123, Svilesis

Archiwum:
Grudzień 2016 (1015)
Listopad 2016 (2431)
Październik 2016 (1961)
Wrzesień 2016 (1857)
Sierpień 2016 (2521)
Lipiec 2016 (2605)


Pokaż wszystkie tagi:
Wejścia na Vorek.pl z:
{referer}



NABÓR NA STANOWISKO


MODERATOR        UPLOADER



Skyline (2010) BRRip.XviD.Feel-Free

Skyline (2010) BRRip.XviD.Feel-Free



### OPIS ###

Nocą na Los Angeles spadają dziwne światła, które przyciągają ludzi na zewnątrz. Tajemnicza siła nie z tego świata chce zniszczyć całą populację ziemską. Grupka ocalałych ludzi zmuszona zostaje do walki o przetrwanie.



### iNFO ###

Genre:Sci-Fi | Thriller
Language:English
IMDb:http://www.imdb.com/title/tt1564585/
Source:BluRay.x264-Vetax


Format : AVI
Format/Info : Audio Video Interleave
File size : 1.17 GiB
Duration : 1h 28mn
Overall bit rate : 1 894 Kbps

Video
Codec ID/Hint : XviD
Duration : 1h 28mn
Bit rate : 1 499 Kbps
Width : 720 pixels
Height : 384 pixels
Display aspect ratio : 1.875
Frame rate : 25.000 fps
Color space : YUV
Chroma subsampling : 4:2:0
Bit depth : 8 bits
Scan type : Progressive
Bits/(Pixel*Frame) : 0.217
Stream size : 951 MiB (79%)
Writing library : XviD 1.2.1 (UTC 2008-12-04)

Audio
ID : 1
Format : AC-3
Format/Info : Audio Coding 3
Mode extension : CM (complete main)
Codec ID : 2000
Duration : 1h 28mn
Bit rate mode : Constant
Bit rate : 384 Kbps
Channel(s) : 6 channels
Channel positions : Front: L C R, Side: L R, LFE
Sampling rate : 48.0 KHz
Bit depth : 16 bits
Stream size : 244 MiB (20%)
Alignment : Aligned on interleaves





### SCREEN'S ###

Skyline (2010) BRRip.XviD.Feel-Free

Skyline (2010) BRRip.XviD.Feel-Free

Skyline (2010) BRRip.XviD.Feel-Free




### DOWNLOAD ###


DOWNLOAD LINK'S:
Aby zobaczyć ukryty tekst musisz być zalogowany, jeżeli nie masz konta zarejestruj się!



Podziel się !

Delicious'da Share  Share on Facebook  Friendfeed Share  Google Shared  StubmleUpon'da Share  Digg'de Share  Netvibes'de Share  Reddit'de Share RSS Feeds Subscribe!

Powrót
Przeglądasz witrynę jako gość.
Dlatego zachęcamy do rejestracji lub do zalogowania się.

Informacja
Użytkownicy z rangą Gość nie mogą dodawać komentarzy.