Menu

Download

Dziś nas odwiedzili:
Archiwum:
Grudzień 2016 (178)
Listopad 2016 (2438)
Październik 2016 (1967)
Wrzesień 2016 (1859)
Sierpień 2016 (2523)
Lipiec 2016 (2609)


Pokaż wszystkie tagi:
Wejścia na Vorek.pl z:
{referer}



NABÓR NA STANOWISKO


MODERATOR        UPLOADER



Shrek Forever / Shrek Forever After (2010) BluRay.1080p.DTSMA.7.1.x264.dxva-FraMeSToR


Shrek Forever / Shrek Forever After (2010) BluRay.1080p.DTSMA.7.1.x264.dxva-FraMeSToR


### OPIS ###
Czym zajmują się ogry, kiedy już rozprawią się ze straszliwym smokiem, poślubią piękną królewnę i ocalą królestwo teścia? Shrek został pantoflarzem. Małorolni nie uciekają już przed nim z krzykiem. Dziś proszą, żeby podpisał im się na widłach. Tęskniąc za czasami, kiedy "żył jak na ogra przystało", Shrek nieopatrznie zawiera pakt z podstępnym Rumplesnickim i ląduje w rządzonej przez niego, spaczonej, alternatywnej wersji Zasiedmiogórogrodu. Tu na ogry się poluje, a Shrek i Fiona nigdy się nie spotkali. Czy Shrekowi uda się odwrócić zaklęcie, uratować przyjaciół i odzyskać ukochaną?





### iNFO ###

General
Format : Matroska
File size : 10.3 GiB
Duration : 1h 33mn
Overall bit rate : 15.9 Mbps

Video
ID : 1
Format : AVC
Format/Info : Advanced Video Codec
Format profile : [email protected]
Format settings, CABAC : Yes
Format settings, ReFrames : 5 frames
Muxing mode : Container [email protected]
Codec ID : V_MPEG4/ISO/AVC
Duration : 1h 33mn
Nominal bit rate : 11.5 Mbps
Width : 1 920 pixels
Height : 816 pixels
Display aspect ratio : 2.35:1
Frame rate : 23.976 fps
Resolution : 8 bits
Colorimetry : 4:2:0
Scan type : Progressive
Bits/(Pixel*Frame) : 0.306
Writing library : x264 core 104 r1677 19df41a
Language : English

Audio #1
ID : 2
Format : DTS
Format/Info : Digital Theater Systems
Format profile : MA
Codec ID : A_DTS
Duration : 1h 33mn
Bit rate mode : Variable
Channel(s) : 8 channels
Channel positions : Front: L C R, Surround: L C C R, LFE
Sampling rate : 48.0 KHz
Resolution : 24 bits
Language : English

Audio #2
ID : 3
Format : AC-3
Format/Info : Audio Coding 3
Codec ID : A_AC3
Duration : 1h 33mn
Bit rate mode : Constant
Bit rate : 224 Kbps
Channel(s) : 2 channels
Channel positions : L R
Sampling rate : 48.0 KHz
Stream size : 149 MiB (1%)
Language : English

Audio #3
ID : 4
Format : AC-3
Format/Info : Audio Coding 3
Codec ID : A_AC3
Duration : 1h 33mn
Bit rate mode : Constant
Bit rate : 448 Kbps
Channel(s) : 2 channels
Channel positions : L R
Sampling rate : 48.0 KHz
Stream size : 299 MiB (3%)
Language : English


Subtitles : English, Dutch

Notes:
******
EXTRA:
-2 Commentary Tracks
-Extern Subbies (CATALAN,GER,ITA,SPA,TUR)





### SCREEN'S ###

Shrek Forever / Shrek Forever After (2010) BluRay.1080p.DTSMA.7.1.x264.dxva-FraMeSToR

Shrek Forever / Shrek Forever After (2010) BluRay.1080p.DTSMA.7.1.x264.dxva-FraMeSToR

Shrek Forever / Shrek Forever After (2010) BluRay.1080p.DTSMA.7.1.x264.dxva-FraMeSToR

Shrek Forever / Shrek Forever After (2010) BluRay.1080p.DTSMA.7.1.x264.dxva-FraMeSToR



### DOWNLOAD ###


DOWNLOAD LINK'S:
Aby zobaczyć ukryty tekst musisz być zalogowany, jeżeli nie masz konta zarejestruj się!



Podziel się !

Delicious'da Share  Share on Facebook  Friendfeed Share  Google Shared  StubmleUpon'da Share  Digg'de Share  Netvibes'de Share  Reddit'de Share RSS Feeds Subscribe!

Powrót
Przeglądasz witrynę jako gość.
Dlatego zachęcamy do rejestracji lub do zalogowania się.

Informacja
Użytkownicy z rangą Gość nie mogą dodawać komentarzy.