Menu

Download

Dziś nas odwiedzili:
andrzejek212, biznesmen66, robanek01, BULIAJ, Karlos2150, czesie_k, kasi, pionek21, gregkop, zibiguzik, draco, seba512, wojtas1000, hahn, joyeczek, Creative, areczek971, zyga, 4lolek4, ARTUROSE, janek12, Majki, aga2.05, Thalia1, grzes997, idiota, mlody2205, zpcytadela, Lorenz, figo73, djlemur, czarnyrogal2, omega1204, rw57, laewa, genium68, wytaczarz44, jeno10, pupil666, mirunia22, foch5r, snayper, schmeichel27, prularis, wama59, lukasz666666, BenekOsw, ziuta, nonez, Donaj, pit.7777, Mlody12478, CCC59KXJ, adamusasior122, tomaszek24, bialekfotografia, scorpions793, smoksmok31, bardini, traco, artfrst, levy52, panradzio, majag88, kacper2008, tomex2u, lopez76, marcin_marcin, gasior932, Krzysztof1973, sita1204, waawr, pika01, skyluk, kanapkatorpedo, darekgl1968, MechoTV, Max Killer, solgerx, stanisław, jarek861029, siwy710, tomzam, and20, saper7206, GunHead, hardcore3791, zenszol, bastion4, fazzy99, slay25, geniu7, gwidon1981, kendzior94, harisa95, duninek16, Raf.36, inesimariusz, DeejayMalec, terry258, Auto-Lux, yonk, jacekgmk, johnyb70, JoXs, KECAJ_18, topolski, ulaghost, Ashigari, pbpbpbpbpb, lonej1, snikers77, renka, eree, Proton_1x, xxvxx5, MarczelM, pitereku, ciawek, Liar, igi2, chemik638, bowe1969, amfetaminka, jedrek00711, mogo76, edmund54, elasuc, Fedor11, pysiu_m, Grzegorz72, sproket1, klymvm, Andi-diesel, kodotorrva, JurekO, bulkotnik, cybulx, priv, mahone78, niasiaguntos, tomek i ania, lukaszek17, -julius-, sandacz53, szukisek, marcindziki1, mwita3, rumak83, eneasz, zbeer, bokser123, slabin, buku54, ravler89, zachod25, nowmarek, trigall, ango, mach12, cze, Mario090673, wloodo, aka93, demon190219, misek1, miecio28, ralf1976, jacolcom, pentor, gbur17, jurek50, tomaszo1948, pawel97, szturmen, narkusdwa, malczyce, piterd14, szakal, dulo123, mks, jupkeennss, rutkowski20, waldek77, gerard, qczi, adikos34, topikos, Feniks101, enigma1952, adam101102, bokkosa, supperbin, lukasz10051, Matthew67, osa31, sowiczi, zakopne, weenzer, pucini, papay100, darekbus, jpwko, buba48, pixel1194, mrozek8, mamata, keram, virginiaa, matey777, baraxx, danix20, wfman, drls1989, Krakus51, adox80, trez, lauratcv, Sarima, marian1999, aspekt2004, mobil199, kajtek42, lyser, mariant, LeoMarkus, jinks13, posejdon, Sdrov, wojtasg, ASTERGO, wotar, lordsiur, lepper, Painkiller212, rencista39, arkadiusz271, crownart, sayo300, krepel, andy08, monisia5, spoli, miodowe, mondia, Sypi, jeak, krys49, grygol2, misiu1185, symoni2008, Manias01, Lukas8, kamelot2012, Uszka2001, RUFO, maciej1900, fox57, kudek01, jerry1013, tedxvs, pipipiotr, konradko77, margaretka62, elwro, zibim, splittt, ryszardos69, tobi180, jano666, jusia266, pepik11, kat666, krewetka105, biggreg, Cirrus, xard2906, piotrek38, Beno182210, Kwiatek2009, alex, skarabeusz, Bartekn90, andjey, Vanisz, angelo1969, celin, mp3de, Zelwik, brovarek123, P.P.P., jarecki500, maruda3773, bazumi20, EdiMar, joanna72, aj 1971, ewa1971, Erik, Kamirllo105, mariusz242, skajla, Mussstaaang, ggtomy, secundus, Seba1984r, EFBOT, cris2111, Johanson325, Anastazja001, Svilesis, jurczyna, Trytonik, karbor83, momo1410, akak1, vasiwasyl

Archiwum:
Grudzień 2016 (796)
Listopad 2016 (2434)
Październik 2016 (1961)
Wrzesień 2016 (1857)
Sierpień 2016 (2521)
Lipiec 2016 (2605)


Pokaż wszystkie tagi:
Wejścia na Vorek.pl z:
{referer}



NABÓR NA STANOWISKO


MODERATOR        UPLOADER



Deeply Disturbed

General
Complete name : Deeply Disturbed\Deeply Disturbed.mp4
Format : MPEG-4
Format profile : Base Media / Version 2
Codec ID : mp42
File size : 164 MiB
Duration : 8mn 26s
Overall bit rate : 2 724 Kbps
Encoded date : UTC 2010-04-10 09:35:47
Tagged date : UTC 2010-04-10 09:35:47

Video
Format : AVC
Format/Info : Advanced Video Codec
Format profile : [email protected]
Format settings, CABAC : Yes
Format settings, ReFrames : 4 frames
Codec ID : avc1
Codec ID/Info : Advanced Video Coding
Duration : 8mn 26s
Bit rate mode : Variable
Bit rate : 2 530 Kbps
Width : 1 280 pixels
Height : 720 pixels
Display aspect ratio : 16/9
Frame rate mode : Constant
Frame rate : 29.970 fps
Standard : NTSC
Resolution : 24 bits
Colorimetry : 4:2:0
Scan type : Progressive
Bits/(Pixel*Frame) : 0.092
Stream size : 153 MiB (93%)
Language : English
Encoded date : UTC 2010-04-10 09:35:47
Tagged date : UTC 2010-04-10 09:35:47

Audio
Format : AAC
Format/Info : Advanced Audio Codec
Format version : Version 4
Format profile : LC
Format settings, SBR : No
Codec ID : 40
Duration : 8mn 26s
Bit rate mode : Variable
Bit rate : 192 Kbps
Maximum bit rate : 293 Kbps
Channel(s) : 2 channels
Channel positions : L R
Sampling rate : 48.0 KHz
Resolution : 16 bits
Stream size : 11.4 MiB (7%)
Language : English
Encoded date : UTC 2010-04-10 09:35:47
Tagged date : UTC 2010-04-10 09:35:47

Deeply Disturbed

Download:

Aby zobaczyć ukryty tekst musisz być zalogowany, jeżeli nie masz konta zarejestruj się!



Podziel się !

Delicious'da Share  Share on Facebook  Friendfeed Share  Google Shared  StubmleUpon'da Share  Digg'de Share  Netvibes'de Share  Reddit'de Share RSS Feeds Subscribe!

Powrót
Przeglądasz witrynę jako gość.
Dlatego zachęcamy do rejestracji lub do zalogowania się.

Informacja
Użytkownicy z rangą Gość nie mogą dodawać komentarzy.