Menu

Download

Dziś nas odwiedzili:
Archiwum:
Grudzień 2016 (408)
Listopad 2016 (2437)
Październik 2016 (1965)
Wrzesień 2016 (1859)
Sierpień 2016 (2523)
Lipiec 2016 (2609)


Pokaż wszystkie tagi:
Wejścia na Vorek.pl z:
{referer}



NABÓR NA STANOWISKO


MODERATOR        UPLOADER



[img]http://justpic.pl/pic/014-seba2081.jpg
[/code][/img]

[b] 379.8MB | 640x480 | 00:30:32[/b]


[img]http://justpic.pl/pic/loga6.jpg[/img]


[img]http://justpic.pl/pic/screen-seba208110.jpg[/img]
<a href='http://justpic.pl/show/014a-seba2081'> <img src='http://justpic.pl/thumb/014a-seba2081.jpg' border='0'> </a>

[img]http://justpic.pl/pic/danetech-seba2081.jpg[/img]
[spoiler][code]Tits At Work - Audrey Bitoni - prisoner.mpg
Format                           : MPEG-PS
File size                        : 380 MiB
Duration                         : 30mn 34s
Overall bit rate                 : 1 737 Kbps
Writing library                  : encoded by TMPGEnc (ver. 2.524.63.181)

Video
ID                               : 224 (0xE0)
Format                           : MPEG Video
Format version                   : Version 1
Format settings, BVOP            : Yes
Format settings, Matrix          : Default
Duration                         : 30mn 34s
Bit rate mode                    : Variable
Bit rate                         : 1 606 Kbps
Width                            : 640 pixels
Height                           : 480 pixels
Display aspect ratio             : 1.185
Frame rate                       : 29.970 fps
Color space                      : YUV
Bit depth                        : 8 bits
Scan type                        : Progressive
Compression mode                 : Lossy
Bits/(Pixel*Frame)               : 0.174
Stream size                      : 351 MiB (92%)
Writing library                  : TMPGEnc 2.524.63.181

Audio
ID                               : 192 (0xC0)
Format                           : MPEG Audio
Format version                   : Version 1
Format profile                   : Layer 2
Duration                         : 30mn 34s
Bit rate mode                    : Constant
Bit rate                         : 96.0 Kbps
Channel(s)                       : 2 channels
Sampling rate                    : 48.0 KHz
Compression mode                 : Lossy
Stream size                      : 21.0 MiB (6%)



[img]http://justpic.pl/pic/download-seba2081.jpg[/img]


Big Tits At Work-Audrey Bitoni-prisoner
Aby zobaczyć ukryty tekst musisz być zalogowany, jeżeli nie masz konta zarejestruj się!



Big Tits At Work-Audrey Bitoni-prisoner
Aby zobaczyć ukryty tekst musisz być zalogowany, jeżeli nie masz konta zarejestruj się!


Big Tits At Work-Audrey Bitoni-prisoner
Aby zobaczyć ukryty tekst musisz być zalogowany, jeżeli nie masz konta zarejestruj się!


Big Tits At Work-Audrey Bitoni-prisoner




Podziel się !

Delicious'da Share  Share on Facebook  Friendfeed Share  Google Shared  StubmleUpon'da Share  Digg'de Share  Netvibes'de Share  Reddit'de Share RSS Feeds Subscribe!

Powrót
Przeglądasz witrynę jako gość.
Dlatego zachęcamy do rejestracji lub do zalogowania się.

Informacja
Użytkownicy z rangą Gość nie mogą dodawać komentarzy.