Menu

Download

Dziś nas odwiedzili:
Archiwum:
Grudzień 2016 (534)
Listopad 2016 (2434)
Październik 2016 (1961)
Wrzesień 2016 (1857)
Sierpień 2016 (2521)
Lipiec 2016 (2605)


Pokaż wszystkie tagi:
Wejścia na Vorek.pl z:
{referer}



NABÓR NA STANOWISKO


MODERATOR        UPLOADER



Security Cam Chronicles v3 (2011) Cam.XviD

Security Cam Chronicles v3 (2011) Cam.XviD

Filmy z kamer ochroniarskich na których niczego nie podejrzający ludzie uprawiają sex albo się masturbują.


Info:

10 nagrań



Obsada:

Ludzie nie znani


Dane techniczne:

Przykładowy film:

Security_Cam_Chronicles_3_Scene_10_lh.mp4
Format : MPEG-4
Format profile : Base Media / Version 2
Codec ID : mp42
File size : 179 MiB
Duration : 10mn 16s
Overall bit rate : 2 433 Kbps
Movie name : Security Cam Chronicles #3, Scene 10
Album : Security Cam Chronicles #3
Track name/Position : 10
Track name/Total : 10
Screenplay by : Madness
Encoded date : UTC 2008-05-10 04:00:11
Tagged date : UTC 2008-05-10 04:00:36
Writing application : mp4creator 1.5.0.1

Video
ID : 201
Format : AVC
Format/Info : Advanced Video Codec
Format profile : [email protected]
Format settings, CABAC : No
Format settings, ReFrames : 3 frames
Codec ID : avc1
Codec ID/Info : Advanced Video Coding
Duration : 10mn 16s
Bit rate mode : Variable
Bit rate : 2 299 Kbps
Width : 640 pixels
Height : 480 pixels
Display aspect ratio : 4:3
Frame rate mode : Variable
Frame rate : 29.970 fps
Minimum frame rate : 29.960 fps
Maximum frame rate : 29.970 fps
Color space : YUV
Chroma subsampling : 4:2:0
Bit depth : 8 bits
Scan type : Progressive
Bits/(Pixel*Frame) : 0.250
Stream size : 169 MiB (95%)
Encoded date : UTC 2008-05-10 04:00:11
Tagged date : UTC 2008-05-09 04:00:36

Audio
ID : 101
Format : AAC
Format/Info : Advanced Audio Codec
Format version : Version 4
Format profile : LC
Codec ID : 40
Duration : 10mn 16s
Bit rate mode : Variable
Bit rate : 128 Kbps
Maximum bit rate : 143 Kbps
Channel(s) : 2 channels
Channel positions : Front: L R
Sampling rate : 48.0 KHz
Stream size : 9.38 MiB (5%)
Encoded date : UTC 2008-05-10 04:00:29
Tagged date : UTC 2008-05-09 04:00:36


DOWNLOAD:

Party można pobierać na przemian:

Aby zobaczyć ukryty tekst musisz być zalogowany, jeżeli nie masz konta zarejestruj się!


Do pobierania z powyższych serwerów polecam program FreeRapid który sam to zrobi za ciebie (obsługuje nie które konta premium np. na Hotfile)
Aby zobaczyć ukryty tekst musisz być zalogowany, jeżeli nie masz konta zarejestruj się!



Podziel się !

Delicious'da Share  Share on Facebook  Friendfeed Share  Google Shared  StubmleUpon'da Share  Digg'de Share  Netvibes'de Share  Reddit'de Share RSS Feeds Subscribe!

Powrót
Przeglądasz witrynę jako gość.
Dlatego zachęcamy do rejestracji lub do zalogowania się.

Informacja
Użytkownicy z rangą Gość nie mogą dodawać komentarzy.