Menu

Download

Polub nas!
Online
W ostatnich 24 godzinach odwiedziło nas 9411 użytkowników w tym 3833 zalogowanych oraz 5578 gości. Obecnie serwis przegląda 739 użytkowników, w tym 492 zalogowanych.
190cm, 1pz, 2017teno, acia2, adam1964, adamekqwe, ahthar, aiden84, AIKAR, ajsja, Akacja2000, akarek, akteon1, AliGie, Alkovita7, alternatereality1, Alusar, amapol, Amay, anasta, and102, andhomik, andrzej0214, AngelMir, Angiemangie, Anijani, AnotherWorld, antena0205, aparatt, apes, Aramis1981, arci1959, Arcist, areek194, Argus, arm1968, armuc, art987, artfrst, artsatie, asia153, asior70, Askalon, Asmodeusz1492, audi100, azjass, AzorPies, babcia78, bajka7, Barbados7891, bart85, Bartosz87, bastion4, beata101, bee, biekam, bizonkrzysztof, Bjorn1967, BladeSSJ7, bobbyxxx, bober63, bochen1333, bolanren, bulgoc, bulkotnik, buncol600, bylik71, bynio13, bz2000, cacumen, calibrato, CamtraX, Cetus, cezaryp, chojraczek1974, choligan, chris76, christina2013, chrunchcorn, colossus1, conbass1, Coolczycki, cr68, creativem, cwanyx, cwks38, Cyberkan, CyberLuke, cytrusm, CzakiBest, Czarek1390, czarnyx, czesiorad, czytelnik1973, DaBiDo, daius010, damagic, damiangie, dandos2, Danek_DD, dankesik, darek22133, dari66, dariusz.n, dariusz47, darkaven, darthv90, dedarco, delta37, demonek2809, derf, dezyderiusz, dimklim, diune, divxon, djmichu, dodomir, Dominik Z, dominik25, dominous, DonCabeza, druidx, Dudzi19, Dzistu, dziube16, EFBOT, Efendi2017, EngineerChem, enigma1952, erik12, erudyta0, evill.factory, feniks11, fercompis, fhu_rafi, firex3211, flick2, frandkd666, franex, Funaki, gabya, garbi13, gardar, garrick, gawroniasty, gazer, geniusloci, gktosik, gochazach, gornik2000, greencolin, Greg43, gregoriusz, gresiek1, gruby1001, Grzeski, guciofm, GunHead, Hanys57, Hearti, heca, heniekzbagien, Hentay, hexballl, hoszczew, ice71, iceman7777, ichigo20,  Infiniti, Irek783, iumruk, j92, Jabba1982, jaboleks56, jacekza, jack85, jagruaz, janmuz007, jano666, jasiek8, jasiuomega, jawy1962, Jazz_1963, jeno10, jerry1013, jerzy22, jetok, jigsaw2305, jmaciej, jnw666, jonas10, jozielona, jszlom, jttt, kabanos66, kacper969, kajetan75, kamilllo88, karlovacko, karsa1975, katafalk, KC42, kelucaj, kemot323, kempy2, kenio23, Keradx, kika2413, KiniaOP, kinio, kkrammer, klawius5, kobra7950gt, kokosz1970, kololuk, komiksiarzyk, Konkret1916, kono2525, koroner, koslind, kris366, Kris77, kristoferson, krzysiek44, krzysiek_wz, krzysztof440, krzysztof59, ksawier67, ksokso, Kulcken, leo2370, leoo, lesmal, lewil, likherty, Locut, lom111, look78, lordgbyron, Lothar76, lucky1111, luk007, lukasz13siwak, Łaseczek, maadziiaa30, mac669, Machoni111, maja99, Majusia175, maksym2, malwa6180, mandros9, Mania22, Manias01, Manipulatio, Mantis48, mapka, marbo11, marcin-kajak, marcin.strzesniewski, marcin790, marcinek 111, marcinstp, MarcoPolo, mardra1, MarekSowa, Margor, mario12a, mario692, marionet, MARTEX01, maskarade, MasterPRo, mat2ylda, mateusz1989, maxwrite, medyk1979, mercurium, metal102, mguruaa, miki84, mikolajjgn, minijot12, mirasek86, mirutek, misimisi, Misio1pl, MISIU11, mjm, mkon, mogo76, moje401, monisia5, mordrag87, morel111, morfeusz21, mp3kleszcz, Mr.Skaner, Mrukenauf, muldas, mulo, nachaju1986, narkusdwa, nati694, niunio3, nkristoff, Nocny_pan35, NOiZZ, obrain, ogr1987, olcio111, onkelrobert, ossy, pablo267, panmisiek, PanTang, panzerwolf666, patrykhq, patychatka, pawel0027, pawel196, pawelszo, pawmot, pawski87, pczarny4, pecio, pentium2_p, pinokio79, pio3050, pionek21, pios, piotr711, piotrek984, PiotrPaw, piotr_007, piotr_es, piotur, pitereku, piwek18, player_ruda, Plotka, poladek, poldix, Polki, polo007, PorterPL, precon, Premium_Kosa, Prezes85, Prometeusz61, psalms, pssgruby, punisher2017, pychu007, pysiu_m, pyzdra525, QBASSOS, qqq, qsi, qspy, quattro1966, Quppa, radek1503, radson0404, rafacus, rafaello1974,  rafi11, rafi481, rafroz1, raider3, ramon, Ramzes18x, rapoo15, rdsxfi, repaa, rerek, Robertnss, robib1125, robo1967, roboprint, rogerG, Roger_MacClintock, roko25, roksa, romulus88, ross154, ruigor, rybczy, rysy, sajuz, sandwich71, sara.123,  SARCIA, satori2208, Sawran, schnikers, sebass71, sebastianpieta, seeebek, selak, sg123, sir daro 24, skorowon, slat, Slimeq31, Smutu, soko33, spacesynth, Spirit72, Stan63, stapbert, stibo26, Stronniczy, sts4, sulerak, supergienio, Svilesis, szakal, T0Biii, t0m69, tadeuszo7, tatakuby, tedik4, teofil1960, test3003, testnavorek22, TheFarm51, toga01, Tomake1028, tomaszja, tomb, tomcio69, Tomek01, Tomi878, tomnan, tomson12a, tomycat, topikos, trafic, trechniś, tree, trutututu, tufton, tysonek1981, ufo, ukaszek, ulaghost, ulan20, utrapek, Valgard, ValNar, Valneo, velovet, Vendrick, virginiaa, voytex2, waawr, waldemarp, Wanda58, wdl22, whisky65, witol, witold9999, wk45, wkaczka1963, wojowniczka82, wojtko8818, wolker, word, wykalaczka, xard2906, xs12, XSi, x_maly_x, Yama41, yankos1, yollly, Yuk, yurek, yvonka, za100s, zand1965, zbigaj, zbychu11985, zelek03, ZELERR, Zelwik, zibi19979, ziloth, zlymumin, zook, zuzka007
Najgoretsze wstawki


Autor: Lolqster
Data: 15 Luty 2011
+5


Lunas Angels (2008) | 1080p | Bluray | 8.16Gb

 Lunas Angels (2008) | 1080p | Bluray | 8.16Gb





Format : Matroska
File size : 8.16 GiB
Duration : 2h 9mn
Overall bit rate : 9 048 Kbps
Width : 1 920 pixels
Height : 1 072 pixels
Display aspect ratio : 16/9
Frame rate : 23.976 fps
Resolution : 24 bits
Audio #1
ID : 2
Format : AC-3
Format/Info : Audio Coding 3
Codec ID : A_AC3
Duration : 2h 9mn
Bit rate mode : Constant
Bit rate : 224 Kbps
Channel(s) : 2 channels
Channel positions : L R
Sampling rate : 48.0 KHz
Stream size : 207 MiB (2%)
Title : German
Language : German
Audio #2
ID : 3
Format : AC-3
Format/Info : Audio Coding 3
Codec ID : A_AC3
Duration : 2h 9mn
Bit rate mode : Constant
Bit rate : 224 Kbps
Channel(s) : 2 channels
Channel positions : L R
Sampling rate : 48.0 KHz
Stream size : 207 MiB (2%)
Title : English
Language : English
Audio #3
ID : 4
Format : AC-3
Format/Info : Audio Coding 3
Codec ID : A_AC3
Duration : 2h 9mn
Bit rate mode : Constant
Bit rate : 224 Kbps
Channel(s) : 2 channels
Channel positions : L R
Sampling rate : 48.0 KHz
Stream size : 207 MiB (2%)
Title : Italien
Language : Italian




Aby zobaczyć ukryty tekst musisz być zalogowany, jeżeli nie masz konta zarejestruj się!



Podziel się !

Delicious'da Share  Share on Facebook  Friendfeed Share  Google Shared  StubmleUpon'da Share  Digg'de Share  Netvibes'de Share  Reddit'de Share RSS Feeds Subscribe!

Przeglądasz witrynę jako gość.
Dlatego zachęcamy do rejestracji lub do zalogowania się.

Informacja
Użytkownicy z rangą Gość nie mogą dodawać komentarzy.