Menu

Download

Polub nas!
Online
W ostatnich 24 godzinach odwiedziło nas 9369 użytkowników w tym 4077 zalogowanych oraz 5292 gości. Obecnie serwis przegląda 532 użytkowników, w tym 404 zalogowanych.
001880402, 1000tomek, 1pz, 32133, 4lapy, 7awbreaker, a44am, a4b4, aaapsik150, aaron187, Abim, abracham, adamcze, ahura.mazda, akarek, albercik82, alek-x, AliGie, alina_89, Alkovita7, alsababnur, Alworthy, amfa07, an2607, and102, Anders87, andiro11, andpen, andross, andrzej-44, andrzejpfx, andzyl72, antoni100, areczek971, Arkadio Morales,  Armaros, arturkrawczyk1, arturmasl, asia153, asinus, Askalon, audi100, Aurelia, a_mal, baba jaga, banan67, barabonio, Barht40a, barry, bart85, bartblack, bartek1, BartoszW, bateryjka, beczka111, bee, beta24, BladeSSJ7, bob1234, bodek_37, bogdan85, Bonior, boreslow, Brianna, bububu08bu, bufo, bulgoc, CezaryW, cezio21, chandler73, christina2013, Ciekawski, ciompis, Cirrus, colossus1, conbass1, cordis89, cwanyx, cychna, Cypol, czaro_1234, czytelnik1973, dakrot, damian01211, Danielvirus, danio1118, darekpot, dariusz.n, dark apostle, daruw666, darwin23, derf, designer132, deusirae, dimerin, djg, djmenel, djobbi, domdel2, dominous, dony32, dorski, dreju, Dudzi19, dziube16, eddard, eend, EFBOT, eisone22, ejunior, elektrikos, ElFi, elrico, elwro, Emilja, emily, erik12, eroico, Fazir, feniks11, fenix66, Finder, flick2, Fryta128, Funaki, gabya, Gangut, garadhei, gardar, gargamel_50, garill, gd4010, Gilgamesz, gminka, gochazach, golgol1, gpiraniaa, Greg43, gregoo, gresiek1, GRTBLSTR, Grzmilu, h5n1n70, hans3, harmanka33, hermar7, honorkaj, igorsz17, iMentos, jaceg, JackRaven800, janekq3, jankabot, jankeslech, janmuz007, jaxa007, Jazz_1963, jermako, jijjij, joannaczy, Jolgc, josephcom, jply, Jucia83, juliusz1230, ka21trin, kacper2015kacper, kalimieckrowa, kami80, Kamillo001, kamilwol, kashanka, kasia11101971, katana57, kazik.pawlak, kazimierz c, kci83, Keradx, khalq, KiniaOP, KipiMleko, kkk244240, kojottt, KOKUS11, kola3531, kololuk, Komon, kopi445, koslind, kossak, Kostropaty, krez, krispil78, krys_p29, krzys72pl, krzysiek8383, kylo73, kyrmit, lala99lala, lambo, Lasonic, lesek, likherty, lipa64, lirycman, loless0, longijoe, Looki24, LUCAS_MANSON, luk085, Lukaas111, lukasz234, mac669, macbdg, Maciek1981, maciekwsp, maczi, MAKALAS, maliniaq, mallet, Mania22, maniek_s, Manipulatio, mar33335, marada13, marcin.strzesniewski, marcin0985, marcin790, mardra1, MarekSowa, mariano7777, mario-k, mario.g, marionet, Mario_Highlaner, mariutek, Marofelidae, martel, marti190991, masmixol, masqinio,  Master, maynard, mcmay, Mechu, medellinenlacasa, mercurium, metlife, michalwole, MichW, MieciaC, milankobar, miro286, misiu1185, misiucha, Mist2, mitsui, mjm, mkon_2004, modliszka1955, momo133, monikaffm, mpkes, muldas, myszon79, nakuru17, Niesmaczny, nowmarek, NTR, ossy, overburn, pa064, pablo0723, Painkiller212, patrol1980, pawel0027, pawel196, pietrek7, pietrek9393, Piotr9, piotrdarco, piter1969pan, pitereku, podjanaszek123, polw, POrlik, PorterPL, Potter, Premium_Kosa, przemograf, przemol79, ps1972, PSINA138, puziak2, PYRUS, pyzdra525, Qrsna, qsefthuko, qviq, Qzbas, ra88, Rafaelloo1985, rafi481, ramon, rapoo15, rastadaniel, ratblaster, rdsxfi, rej212, robertb, robertn5, Robertnss, robosz, roksa, Roland A. Gnat, Roman1108, ropcio, ross154, rudy2309, ruminpu, rumoren, ruptak, ruzgov, s1_supervisor, sadakid, sajmon88s, sajnek, samplerro, sandalwood, saperab,  SARCIA, saturn7423, schabu72, sebastianzet, Seba_1983_13, simon1, sir daro 24, siwekjacek, SkiArt, skima112, slawek 58, sokolok, spacesynth, Ssteffann, stalker7, stanislawblach, stelar, Strateg22, Stylishh1, Svilesis, sydney112, sylwester55, szabifurion1, Szajba67, szav, szczepan34, szpotawa, Tara760, thalotor, Tom57, tomcio69, tomi419, TomikDC, Tomkox33, tomsonxxl, topfx, torcik pl, Torres, trebugas, trivium, trut56, trutututu, trwsxd, ultraselect, Vader24, Valgard, Vorek19, vvikig, wad48, wezyr512, whisky65, wisior72, wito1109, witol, witstwosz666, wkaczka1963, wmnzr, wojt05, wojtekx 321, wojtko8818, wolowicz19, Xentrix, xodox, x_maly_x, yeti993, yollly, zawodnik, zbyeszek1000, zbyszek1408, zbyszekj1, Zelwik, zjawa, Zolwik1922, zombislaw
Najgoretsze wstawki


Autor: Lolqster
Data: 15 Luty 2011
+5


Lunas Angels (2008) | 1080p | Bluray | 8.16Gb

 Lunas Angels (2008) | 1080p | Bluray | 8.16Gb





Format : Matroska
File size : 8.16 GiB
Duration : 2h 9mn
Overall bit rate : 9 048 Kbps
Width : 1 920 pixels
Height : 1 072 pixels
Display aspect ratio : 16/9
Frame rate : 23.976 fps
Resolution : 24 bits
Audio #1
ID : 2
Format : AC-3
Format/Info : Audio Coding 3
Codec ID : A_AC3
Duration : 2h 9mn
Bit rate mode : Constant
Bit rate : 224 Kbps
Channel(s) : 2 channels
Channel positions : L R
Sampling rate : 48.0 KHz
Stream size : 207 MiB (2%)
Title : German
Language : German
Audio #2
ID : 3
Format : AC-3
Format/Info : Audio Coding 3
Codec ID : A_AC3
Duration : 2h 9mn
Bit rate mode : Constant
Bit rate : 224 Kbps
Channel(s) : 2 channels
Channel positions : L R
Sampling rate : 48.0 KHz
Stream size : 207 MiB (2%)
Title : English
Language : English
Audio #3
ID : 4
Format : AC-3
Format/Info : Audio Coding 3
Codec ID : A_AC3
Duration : 2h 9mn
Bit rate mode : Constant
Bit rate : 224 Kbps
Channel(s) : 2 channels
Channel positions : L R
Sampling rate : 48.0 KHz
Stream size : 207 MiB (2%)
Title : Italien
Language : Italian




Aby zobaczyć ukryty tekst musisz być zalogowany, jeżeli nie masz konta zarejestruj się!



Podziel się !

Delicious'da Share  Share on Facebook  Friendfeed Share  Google Shared  StubmleUpon'da Share  Digg'de Share  Netvibes'de Share  Reddit'de Share RSS Feeds Subscribe!

Przeglądasz witrynę jako gość.
Dlatego zachęcamy do rejestracji lub do zalogowania się.

Informacja
Użytkownicy z rangą Gość nie mogą dodawać komentarzy.