Menu

Download

Dziś nas odwiedzili:
lorak56, szefiii, terry258, cycek77, akak1, Uszka2001, pawmot, Taktyk91, janek1888, dulo123, darekgl1968, foch5r, areczek971, papay100, pychu007, zynio, BoloLVII, Krzysztof1973, jasiufasola, czesie_k, lauratcv, tadeuszo7, djlemur, pentor, ciołek12, krzysiek850307, matey777, tomaszo1948, GunHead, skarabeusz, sandacz53, kajtek42, piła, tomek7221, anita13, andy08, victory04, benq77, buruburu, iwonaro, robaczio9, coruble, buba48, keram, baraxx, Creative, shemi, lukasz10051, cze, szukisek, virginiaa, margaretka62, tat4, monsun65, lordsiur, kubus009, jacolcom, mlody2205, seat1234, moje401, ARTUROSE, kaczy24, Ambasadoor70, Andi-diesel, lopez76, zakopne, adox80, huarez44, jerry1013, mp3de, Manias01, lucky170, siwy710, mach12, stanley_pl, krywan, ASTERGO, mariant, mpawel71, LeoMarkus, Zelwik, FALKON69, aspekt2004, prularis, toczev, weenzer, podol76, Prospector00, Auto-Lux, marek6408, Bodzio57, lauenburg, Sdrov, spoli, Trytonik, czesiek1964, qczi, grygol2, wotar, slay25, kkk244240, maciej1900, jeak, arkadiusz271, RUFO, mirek4321, bolo335, symoni2008, DARO67, glut1510, wojtasg, solgerx, Sypi, pepik11, Lukas8, jszlom, luka121212, piotrek38, ryszardos69, sayo300, sita1204, zibim, trybsiu, angelo1969, crownart, Feniks101, celin, polska00, gawron.1983, splittt, jedrek00711, pipipiotr, mariusz242, Rogall, alex, andjey, Cirrus, kasi, Bartekn90, saper7206, drenn1, xard2906, Ashigari, aj 1971, andrzejdkl2, buku54, jarecki500, tedxvs, mani4444, ramon, singielka30, sproket1, Vanisz, Kamirllo105, gento, tristan_mk, skajla, Abdul_wisimulacha, biggreg, bialy219, bil, pbpbpbpbpb, EFBOT, Svilesis

Archiwum:
Grudzień 2016 (421)
Listopad 2016 (2437)
Październik 2016 (1965)
Wrzesień 2016 (1859)
Sierpień 2016 (2523)
Lipiec 2016 (2609)


Pokaż wszystkie tagi:
Wejścia na Vorek.pl z:
{referer}



NABÓR NA STANOWISKO


MODERATOR        UPLOADER



Lunas Angels (2008) | 1080p | Bluray | 8.16Gb

 Lunas Angels (2008) | 1080p | Bluray | 8.16Gb





Format : Matroska
File size : 8.16 GiB
Duration : 2h 9mn
Overall bit rate : 9 048 Kbps
Width : 1 920 pixels
Height : 1 072 pixels
Display aspect ratio : 16/9
Frame rate : 23.976 fps
Resolution : 24 bits
Audio #1
ID : 2
Format : AC-3
Format/Info : Audio Coding 3
Codec ID : A_AC3
Duration : 2h 9mn
Bit rate mode : Constant
Bit rate : 224 Kbps
Channel(s) : 2 channels
Channel positions : L R
Sampling rate : 48.0 KHz
Stream size : 207 MiB (2%)
Title : German
Language : German
Audio #2
ID : 3
Format : AC-3
Format/Info : Audio Coding 3
Codec ID : A_AC3
Duration : 2h 9mn
Bit rate mode : Constant
Bit rate : 224 Kbps
Channel(s) : 2 channels
Channel positions : L R
Sampling rate : 48.0 KHz
Stream size : 207 MiB (2%)
Title : English
Language : English
Audio #3
ID : 4
Format : AC-3
Format/Info : Audio Coding 3
Codec ID : A_AC3
Duration : 2h 9mn
Bit rate mode : Constant
Bit rate : 224 Kbps
Channel(s) : 2 channels
Channel positions : L R
Sampling rate : 48.0 KHz
Stream size : 207 MiB (2%)
Title : Italien
Language : Italian




Aby zobaczyć ukryty tekst musisz być zalogowany, jeżeli nie masz konta zarejestruj się!



Podziel się !

Delicious'da Share  Share on Facebook  Friendfeed Share  Google Shared  StubmleUpon'da Share  Digg'de Share  Netvibes'de Share  Reddit'de Share RSS Feeds Subscribe!

Powrót
Przeglądasz witrynę jako gość.
Dlatego zachęcamy do rejestracji lub do zalogowania się.

Informacja
Użytkownicy z rangą Gość nie mogą dodawać komentarzy.