Menu

Download

Dziś nas odwiedzili:
cycek77, eree, jano666, jinks13, kkk244240, jaco013, xard2906, ralf1976, Prospector00, figo73, snayper, sir daro 24, agary35, wytaczarz44, Liar, dejw, yonk, matey777, andy08, kuras, jacek40old, heniek_ih, skajla, szybki811, skarabeusz, pixel1194, brovarek123, GunHead, cichyd1, Ambasadoor70, solgerx, MarczelM, kurosumi, igi2, akak1, kat666, klymvm, biznesmen66, mlody2205, misiu1185, piterd14, grzegorz48, feihung, jurek50, Beno182210, panradzio, karton1, nowmarek, sbb1953, Manias01, pentor, tomaszo1948, iruss3, jeak, Sypi, topikos, Andi-diesel, demon190219, wawa998, kanzas, aga2.05, kudek01, mariant, golden2, aronia, Zelwik, mondia, lysy68, waclaw, lukasz10051, polska00, Lorenz, geniusloci, bodekk2, sznurowski, 75tofik, krepel, tomek i ania, Bodzio57, Finder, Mario090673, keram, koziorożec, cze, tat4, buku54, huarez44, kajtek42, lepper, splittt, Dom612, jedrek00711, lauratcv, crownart, adox80, marek6408, secundus, miro72, Krakus51, Fedor11, luka121212, baraxx, marian1999, zieciut2, edmund54, podol76, jerry1013, buba48, victory04, mpawel71, toczev, ulaghost, Sdrov, circus, anetam1, JoXs, ARTUROSE, andino, wotar, qczi, Lukas8, Creative, lyser, renka, lucky170, weenzer, osa31, arkadiusz271, kamelot2012, grygol2, krys49, symoni2008, piurored123, aspekt2004, Auto-Lux, danix20, seat1234, bolo335, prularis, papor, wojtasg, ASTERGO, zbeer, tedxvs, jacolcom, intermilano, robaczio9, Uszka2001, latos2005, RUFO, MARIULA500, konradko77, pipipiotr, jusia266, jojogurt, biggreg, mirek4321, ryszardos69, angelo1969, drenn1, papay100, Bartekn90, joanna72, pluton777777, djlemur, mp3de, celin, spoli, andjey, alex, spot2302, tobi180, sayo300, pepik11, Cirrus, jurczyna, kasi, EdiMar, bowe1969, rw57, mariusz242, aj 1971, nonez, Kamirllo105, waldemarmichniuk, Vanisz, rftgyh, Ashigari, patryk12345, jan000, darekbus, ahmedibnfahlan, Johanson325, jarecki500, ramon, slawol666, smoksmok31, miecio28, EFBOT, virginiaa, Svilesis

Archiwum:
Grudzień 2016 (557)
Listopad 2016 (2434)
Październik 2016 (1961)
Wrzesień 2016 (1857)
Sierpień 2016 (2521)
Lipiec 2016 (2605)


Pokaż wszystkie tagi:
Wejścia na Vorek.pl z:
{referer}



NABÓR NA STANOWISKO


MODERATOR        UPLOADER



Pure18 - Lollipop stop DVDRip.WMV


Pure18 - Lollipop stop DVDRip.WMV




UPLOAD NA 2 SERWERY

TYLKO 1 LINK

5 % DANYCH NAPRAWCZYCH



Dane techniczne:

Format : Windows Media
File size : 15.2 MiB
Duration : 39mn 54s
Overall bit rate : 53.3 Kbps
Maximum Overall bit rate : 1 567 Kbps
Encoded date : UTC 2011-01-07 00:07:18.000
Video #1
ID : 1
Format : VC-1
Format profile : MP
Codec ID : WMV3
Codec ID/Info : Windows Media Video 9
Codec ID/Hint : WMV3
Description of the codec : Windows Media Video 9 - 2-pass VBR
Duration : 39mn 52s
Bit rate : 1 500 Kbps
Width : 768 pixels
Height : 432 pixels
Display aspect ratio : 16:9
Frame rate : 29.970 fps
Resolution : 24 bits
Scan type : Progressive
Bits/(Pixel*Frame) : 0.151
Stream size : 428 MiB
Audio #2
ID : 2
Format : WMA2
Codec ID : 161
Codec ID/Info : Windows Media Audio 2
Description of the codec : Windows Media Audio 9 - 48 kbps, 44 kHz, mono CBR
Duration : 39mn 54s
Bit rate : 48.0 Kbps
Channel(s) : 1 channel
Sampling rate : 44.1 KHz
Resolution : 16 bits
Stream size : 13.7 MiB (90%)




DOWNLOAD:


Mirror 1:

Aby zobaczyć ukryty tekst musisz być zalogowany, jeżeli nie masz konta zarejestruj się!


lub

Mirror 2:

Aby zobaczyć ukryty tekst musisz być zalogowany, jeżeli nie masz konta zarejestruj się!




Podziel się !

Delicious'da Share  Share on Facebook  Friendfeed Share  Google Shared  StubmleUpon'da Share  Digg'de Share  Netvibes'de Share  Reddit'de Share RSS Feeds Subscribe!

Powrót
Przeglądasz witrynę jako gość.
Dlatego zachęcamy do rejestracji lub do zalogowania się.

Informacja
Użytkownicy z rangą Gość nie mogą dodawać komentarzy.