Menu

Download

Dziś nas odwiedzili:
pit.7777, maniek2203, schmeichel27, Grav1ty, wojtas1000, bulkotnik, Donaj, darro79, cwiras22, Feniks101, adikos34, almera8, Mlody12478, zenon331, womi10, Thalia1, elasuc, bastion4, Ściągacz, and20, swen7, zbyszekj1, edzidek, mara46, robanek01, tatzi, lola010, janek12, pawo, weronis, laewa, Max Killer, zpcytadela, Veni, wasyl75, azzow, Sebool53, skyluk, fox57, artfrst, rufinone, maruda3773, xmiro, jeno10, CCC59KXJ, miesniak, globline, Krzysieklu, slay25, rumak83, romanirena, tyciuni, mwita3, pychu007, MarlonM, adamusasior122, ziuta, eneasz, santa3, pbpbpbpbpb, trigall, miodowe, pitereku, vampire69, robek4, lonej1, maliniak, Patryk1972, gawron.1983, maciej1900, puszek67, wlodek55, drls1989, migotek, Siegfried, skorpion653202, narkusdwa, cycek77, eree, jano666, jinks13, kkk244240, jaco013, xard2906, ralf1976, Prospector00, figo73, snayper, sir daro 24, agary35, wytaczarz44, Liar, dejw, yonk, matey777, andy08, kuras, jacek40old, heniek_ih, skajla, szybki811, skarabeusz, pixel1194, brovarek123, GunHead, cichyd1, Ambasadoor70, solgerx, MarczelM, kurosumi, igi2, akak1, kat666, klymvm, biznesmen66, mlody2205, misiu1185, piterd14, grzegorz48, feihung, jurek50, Beno182210, panradzio, karton1, nowmarek, sbb1953, Manias01, pentor, tomaszo1948, iruss3, jeak, Sypi, topikos, Andi-diesel, demon190219, wawa998, kanzas, aga2.05, kudek01, mariant, golden2, aronia, Zelwik, mondia, lysy68, waclaw, lukasz10051, polska00, Lorenz, geniusloci, bodekk2, sznurowski, 75tofik, krepel, tomek i ania, Bodzio57, Finder, Mario090673, keram, koziorożec, cze, tat4, buku54, huarez44, kajtek42, lepper, splittt, Dom612, jedrek00711, lauratcv, crownart, adox80, marek6408, secundus, miro72, Krakus51, Fedor11, luka121212, baraxx, marian1999, zieciut2, edmund54, podol76, jerry1013, buba48, victory04, mpawel71, toczev, ulaghost, Sdrov, circus, anetam1, JoXs, ARTUROSE, andino, wotar, qczi, Lukas8, Creative, lyser, renka, lucky170, weenzer, osa31, arkadiusz271, kamelot2012, grygol2, krys49, symoni2008, piurored123, aspekt2004, Auto-Lux, danix20, seat1234, bolo335, prularis, papor, wojtasg, ASTERGO, zbeer, tedxvs, jacolcom, intermilano, robaczio9, Uszka2001, latos2005, RUFO, MARIULA500, konradko77, pipipiotr, jusia266, jojogurt, biggreg, mirek4321, ryszardos69, angelo1969, drenn1, papay100, Bartekn90, joanna72, pluton777777, djlemur, mp3de, celin, spoli, andjey, alex, spot2302, tobi180, sayo300, pepik11, Cirrus, jurczyna, kasi, EdiMar, bowe1969, rw57, mariusz242, aj 1971, nonez, Kamirllo105, waldemarmichniuk, Vanisz, rftgyh, Ashigari, patryk12345, jan000, darekbus, ahmedibnfahlan, Johanson325, jarecki500, ramon, slawol666, smoksmok31, miecio28, EFBOT, virginiaa, Svilesis

Archiwum:
Grudzień 2016 (571)
Listopad 2016 (2434)
Październik 2016 (1961)
Wrzesień 2016 (1857)
Sierpień 2016 (2521)
Lipiec 2016 (2605)


Pokaż wszystkie tagi:
Wejścia na Vorek.pl z:
{referer}



NABÓR NA STANOWISKO


MODERATOR        UPLOADER



Une mere et sa fille - Mother and Daughter.RMVB

Une mere et sa fille - Mother and Daughter.RMVB

Studio : Marc Dorcel (France - 2010)
Czas : 112 minutes
Język : France
Reżyseria : Paul Thomas
Występują : Bobbi Starr, Jade Laroche, Kristina Rose, Tarra White, Dana DeArmond,
Chayse Evans, Julia Ann, Denis Marti, Mr. Marcus, Danny Mountain, Jerry


10% Danych naprawczych

Dwa serwery do wyboru: FileServe.com i HotFile.com

TYLKO JEDEN LINK


Dane Techniczne:

Format : RealMedia
File size : 273 MiB
Duration : 1h 51mn
Overall bit rate : 336 Kbps

Video
ID : 0
Format : RealVideo 4
Codec ID : RV40
Codec ID/Info : Based on AVC (H.264), Real Player 9
Duration : 1h 51mn
Bit rate : 272 Kbps
Width : 320 pixels
Height : 240 pixels
Display aspect ratio : 4:3
Frame rate : 25.000 fps
Bits/(Pixel*Frame) : 0.142
Stream size : 216 MiB (79%)

Audio
ID : 1
Format : Cooker
Codec ID : cook
Codec ID/Info : Based on G.722.1, Real Player 6
Duration : 1h 51mn
Bit rate : 64.1 Kbps
Channel(s) : 2 channels
Sampling rate : 44.1 KHz
Bit depth : 16 bits
Stream size : 50.9 MiB (19%)


Screen:

Une mere et sa fille - Mother and Daughter.RMVB

DOWNLOAD:

Aby zobaczyć ukryty tekst musisz być zalogowany, jeżeli nie masz konta zarejestruj się!


LUB:

Aby zobaczyć ukryty tekst musisz być zalogowany, jeżeli nie masz konta zarejestruj się!



Podziel się !

Delicious'da Share  Share on Facebook  Friendfeed Share  Google Shared  StubmleUpon'da Share  Digg'de Share  Netvibes'de Share  Reddit'de Share RSS Feeds Subscribe!

Powrót
Przeglądasz witrynę jako gość.
Dlatego zachęcamy do rejestracji lub do zalogowania się.

Informacja
Użytkownicy z rangą Gość nie mogą dodawać komentarzy.