Menu

Download

Polub nas!
Online
W ostatnich 24 godzinach odwiedziło nas 10456 użytkowników w tym 3598 zalogowanych oraz 6858 gości. Obecnie serwis przegląda 208 użytkowników, w tym 150 zalogowanych.
1marek1, 3_kawki, 700hary, alanfu, albercik82, alex65, alienz, alina_89, Alworthy, amigo36, andreas1166, andrzejpfx, andrzejzr, andyIno, andym0, audi100, avator, awart404, bart_kom, bee, Brianna, brovarek123, bulgoc, CezaryW, cmychor, colossus1, conbass1, cr68, ctx, czakaboy, czektek, darekpot, dedalus86, demon190219, dominous, dreju, dsefd, EFBOT, elektrikos, fantomas33, fhu_rafi, frodo, geniusloci, gildor, gt350, hans26, hasselbeink, heca, hermar7, hexballl, himik, iceman7777, imnowak, IyreenDavos, jack85, jarecki500, jaros7, jedrek00711, karsa1975, katarek1983, kempy2, Khadif, KiniaOP, kion1, kkk244240, kleryk, Koki25, kresy, kurosumi, lordgbyron, lukasz13siwak, lyskonk, Macha, magik020, Mania22, Manipulatio, Mantis48, maramax, marbo11, marcin-kajak, marcin.strzesniewski, marcin790, mardra1, mareckitx, marekjed, markowens, mercurium, mistrzjarek, mjackowski, mlody641641, moniarz3, mozajka, mrowa777, mxs0803c, nazix, niunio3, ossy, OVERDRIVE, paixo, pawel0027, pawel196, pawiu81, pawmot, piotur, Piwowarek, plas_tek, POrlik, Premium_Kosa, przemograf, psychobart, PYRUS, pysiacek, pyzdra525, qsefthuko, qwerta, ra88, rafacus, ramon, rdsxfi, rej212, rob1234599, Robal, Robertnss, robkam, robo1967, roksa, rrman69, RTK, ruptak, satib, sebastianpieta, siny181, skalarltd, sts4, surbeer, szlazer, tatra500, TIMOONN62, tomcio69, trebla, ValNar, vorry, waldemarp, wektor116, whisky65, wkaczka1963, x_maly_x, Zelwik, zohar, zolek
Najgoretsze wstawki


Autor: Polgrabek
Data: 14 Grudzień 2010
0


Ukarana za cygaro

Ukarana za cygaro

FileServe.com, FileSonic.com i HotFile.com

Tylko jeden link




Dane Techniczne:

Format : AVI
Format/Info : Audio Video Interleave
File size : 87.7 MiB
Duration : 40mn 41s
Overall bit rate : 301 Kbps
Writing application : Lavf52.39.1

Video
ID : 0
Format : xvid
Codec ID : xvid
Duration : 20mn 20s
Bit rate : 525 Kbps
Width : 320 pixels
Height : 240 pixels
Display aspect ratio : 4:3
Frame rate : 29.917 fps
Bits/(Pixel*Frame) : 0.229
Stream size : 76.4 MiB (87%)

Audio
ID : 1
Format : MPEG Audio
Format version : Version 2
Format profile : Layer 3
Codec ID : 55
Codec ID/Hint : MP3
Duration : 40mn 41s
Bit rate mode : Constant
Bit rate : 64.0 Kbps
Channel(s) : 1 channel
Sampling rate : 22.05 KHz
Stream size : 9.31 MiB (11%)
Alignment : Aligned on interleaves
Interleave, duration : 26 ms (0.78 video frame)



Screen:

Ukarana za cygaro

DOWNLOAD:

Aby zobaczyć ukryty tekst musisz być zalogowany, jeżeli nie masz konta zarejestruj się!


LUB:

Aby zobaczyć ukryty tekst musisz być zalogowany, jeżeli nie masz konta zarejestruj się!


LUB:

Aby zobaczyć ukryty tekst musisz być zalogowany, jeżeli nie masz konta zarejestruj się!



Podziel się !

Delicious'da Share  Share on Facebook  Friendfeed Share  Google Shared  StubmleUpon'da Share  Digg'de Share  Netvibes'de Share  Reddit'de Share RSS Feeds Subscribe!

Przeglądasz witrynę jako gość.
Dlatego zachęcamy do rejestracji lub do zalogowania się.

Informacja
Użytkownicy z rangą Gość nie mogą dodawać komentarzy.